アットウィキロゴ
Scars of FAUNA [2]
猫叉Master

EXTREME

Level: 10.1
BPM: 165
Notes(hold): 821(30)

1
口②口口 |①--②|
口口口口 |--③-|
①口口口 |④---|
④口③口
2
③④⑤⑥ |①--②|
口口②口 |---③④⑤|
①口口口 |⑥---|
口口口口
3
口口口口 |①--②|
口②口口 |--③-|
口口口① |④---|
③口④口
4
③④⑤⑥ |①--②|
①口口口 |---③④⑤|
口口口口 |⑥---|
口②口口
5
口口口口 |①--②|
口口②口 |--③④|
①④③口 |⑤---|
口口⑤口
6
③④⑤⑥ |①--②|
口口②口 |---③④⑤|
①口口口 |⑥-⑦⑧|
口⑧⑦口
7
口口口口 |①--②|
②口③⑤ |--③-|
口④①⑥ |④-----⑤⑥|
口口口口
8
③④⑤⑥ |①--②|
口②口口 |---③④⑤|
口口口口 |⑥---|
口口口①
9
口口口口 |①--②|
口口②口 |--③-|
①口口① |④---|
①④③①
10
③④⑤⑥ |①--②|
口口②口 |---③④⑤|
①口口口 |⑥---|
口口口口
11
口口口口 |①--②|
口②口口 |--③-|
口口口① |④---|
③口④口
12
③④⑤⑥ |①--②|
①口口口 |---③④⑤|
口口口口 |⑥---|
口②口口
13
口口口口 |①--②|
口口②口 |--③-|
①口口① |④---|
①④③①
14
③④⑤⑥ |①--②|
口口②口 |---③④⑤|
①口口口 |⑥---|
口口口口
15
口口⑤口 |①--②|
①④③口 |--③④|
口⑦⑥口 |⑤-⑥⑦|
口②口口
16
③口⑦② |①-②③|
③⑥⑧⑥ |-④⑤-|
⑤口⑨口 |⑥--⑦⑧⑨|
⑤口①④
17
口口口口 |①---|
口口口口 |----|
口口口口 |----|
>━①口
18
口口口口 |----|
口①口口 |----|
口口口口 |①-②-|
口②①口
19
口口口口 |①---|
口口>① |----|
口口口口 |----|
口口口口
20
口口口口 |①---|
口口口① |----|
口口口口 |----|
口①<口
21
口口①① |①---|
口②口口 |----|
口口口口 |②-③-|
口①③口
22
口口口② |①---|
口口口口 |--②-|
口口口① |----|
口口口口
23
口②③口 |①---|
口④口口 |--②③|
口口①口 |④---|
口口口口
24
②口口口 |①---|
⑧口口⑦ |②-③④|
口⑥⑤口 |⑤⑥⑦⑧|
④口①③
25
口口∨口 |①-②-|
口②┃口 |③-④-|
④⑥┃口 |⑤-⑥-|
⑤③①口
26
口②口口 |①-②-|
①⑤口口 |③-④-|
④⑥口口 |⑤-⑥-|
口③⑤口
27
口口口④ |①-②-|
①口③① |③-④-|
┃口②① |⑤-⑥-|
∧口⑥⑤
28
口口③口 |①-②-|
①口口② |③-④-|
口∨口口
口①口口

⑧口口④
口⑦口口
口口⑥口 |⑤⑥⑦⑧|
口⑤口⑤
29
口口口④ |①--②|
口口⑤② |--③-|
①③口口 |④-⑤-|
口口④口
30
口口口口 |①--②|
②口口口 |--|
口口口①
口口口∧

④口口口
口口口口
口口③③ |③-|
口④口口 |④---|
31
口口口口 |①--②|
口口口② |--|
①口口口
∧口口口

口口口④
口口口口
③③口口 |③-|
口口④口 |④---|
32
④口口⑥ |①②③④|
口③⑦口 |⑤---|
口⑧②⑤ |⑥⑦⑧⑨|
⑨⑤口①
33
④口口口 |①--②|
①⑤口③ |③-④-|
②口口∨ |⑤---|
口口口①
34
④⑤⑥⑦ |①--②|
口口口③ |③--④⑤⑥|
口口口① |⑦---|
口②口①
35
④口口⑤ |①--②|
①口口③ |③-④-|
口口口① |⑤---|
⑤②口④
36
④⑤⑥⑦ |①--②|
口口口③ |③--④⑤⑥|
口①口① |⑦---|
口②口口
37
④口口⑤ |①--②|
①口口③ |③-④-|
口口口① |⑤---|
⑤②口④
38
④⑤⑥⑦ |①--②|
①口口③ |③--④⑤⑥|
口口口① |⑦---|
口②口口
39
④口口⑤ |①--②|
口口口③ |③-④-|
口①口① |⑤---|
⑤②口④
40
⑥⑦⑧⑨ |①-②③|
③口口⑤ |-④⑤-|
③①①⑤ |⑥⑦⑧⑨--|
口④②口
41
口口口口 |----|
口口口口 |----|
口口口口 |----|
口口口口
42
③②口口 |①---|
口④⑤① |②---|
①口口口 |③-④⑤|
口口③②
43
口⑦口① |①-②-|
⑦口口⑧ |③④⑤⑥--|
⑥⑤④③ |⑦-⑧-|
口②口口
44
口口②③ |①---|
口口⑤口 |②---|
口口口④ |③-④⑤|
②③①①
45
口①口口 |①-②-|
⑨口口③ |③-④-|
⑤⑥⑦⑧ |⑤-⑥-⑦-⑧--⑨--|
④口②口
46
③②①① |①---|
口④⑤口 |②---|
口口口口 |③-④⑤|
口口③②
47
口⑦口① |①-②-|
⑦口口⑧ |③④⑤⑥--|
⑥⑤④③ |⑦-⑧-|
口②口口
48
口口②③ |①---|
口口⑤④ |②---|
口口口口 |③-④⑤|
②③①①
49
口①口口 |①-②-|
口⑦口口 |③④⑤⑥--|
③④⑤⑥ |--⑦-|
口口②口
50
口口口口 |①-②-|
②口口③ |③-④-|
口口口④
口①―<

口口口⑤
口口口口
口口口口 |⑤-⑥-|
口口口⑥
51
口口⑧⑦ |①②③---|
④⑤⑥⑨ |④⑤⑥---|
①②③口 |⑦⑧⑨-|
口口口口
52
④⑤口口 |①-②-|
口口口口 |③-④-|
③②⑥口 |⑤-⑥⑦|
⑦①①口
53
口口∨② |①--②③④|
口口⑥③ |⑤-⑥-|
口口口④
口口①⑤

口⑦口口
口口⑦口
口口口口
口口口口 |--⑦-|
54
口口口口 |①-②-|
②口口③ |③-④-|
口口口④
口①―<

口口口⑤
口口口口
口口口口 |⑤-⑥-|
口口口⑥
55
口口⑧⑦ |①②③---|
④⑤⑥⑨ |④⑤⑥---|
①②③口 |⑦⑧⑨-|
口口口口
56
④⑤口口 |①-②-|
口口口口 |③-④-|
③②⑥口 |⑤-⑥⑦|
⑦①①口
57
口口∨② |①--②③④|
口口⑥③ |⑤-⑥-|
口口口④ |----|
口口①⑤
58
②口口口 |①---|
口口①③ |②-③-|
④口口口 |④---|
①口①口
59
②口口④ |①---|
口③口口 |②-③-|
④①口① |④-⑤-|
口⑤口口
60
②口口口 |①---|
口口口③ |②-③-|
④口口① |④---|
①口口口
61
口①口④ |①---|
①口②口 |②-③-|
口③口② |④---|
④口口①
62
②口口口 |①---|
口口口③ |②-③-|
④口口口 |④---|
口①口①
63
②口口口 |①---|
口③口④ |②-③-|
④①口① |④-⑤-|
口⑤口口
64
口①①口 |①---|
③口②口 |②---|
口口④口 |③-④⑤|
⑤口口口
65
口口∨② |①--②③④|
口口⑥③ |⑤-⑥-|
口口口④
口口①⑤

口口口口
口口⑦口
口口口口
口口口口 |--⑦-|
66
口④口口 |①---|
②⑤⑥口 |②-③-|
口④③口 |④---⑤⑥|
②①①口
67
④口口② |①---|
⑤口口① |②-③-|
⑥口③口 |④⑤⑥⑦--|
⑦口口口
68
⑤④口口 |①---|
口③口② |②-③-|
口④口口 |④-⑤-|
口①①②
69
口口③口 |①---|
②口④② |②--③④⑤|
口口⑤口 |⑥---|
①①⑥口
70
⑤④口口 |①---|
口③口② |②-③-|
口④口口 |④-⑤-|
①①口②
71
口④②④ |①---|
口口口口 |②-③-|
口⑤③② |④-⑤-|
①①口口
72
①口口口 |①---|
|口口① |②---|
|口口口
∧口口②

③口③口
口口④口
口口⑤口
口口口口 |---③④⑤|
73
口口口③ |①---|
口②口口 |②---|
口口口③ |③---|
口②①口
74
口①③口 |①-②-|
①口⑥③ |③-④-|
口②④⑤ |⑤-⑥-|
口口⑤①
75
①口口③ |①-②-|
⑥④口⑤ |③-④-|
⑤口④⑥ |⑤-⑥-|
③②口①
76
②③④⑤ |①--②③④|
口⑥①⑦ |⑤-⑥-|
⑦①⑧口 |⑦-⑧-|
⑤④③②
77
口口口口 |①---|
①③口口 |②-③-|
口∧口①
口口口②

口口口④
口⑤口口
口口口口 |④-⑤-|
口口⑤口
78
口①③⑤ |①-②-|
①口⑥③ |③-④-|
口口④① |⑤-⑥-|
②⑤口口
79
口①口口 |①---|
口口口口
①<口口
口口口①

③<口口
口②口② |②-③-|
②口口口
口口口口

⑤口口④
口口口口
口口口口 |④-⑤-|
口口⑤口
80
口口口口 |①②③---|
⑤口口⑤ |④---|
口①②③ |⑤-⑥-|
⑥④口⑥
81
①①④④ |①②③④|
口⑨⑨口 |⑤⑥⑦⑧|
⑤③②⑥ |⑨-⑩-|
⑩⑦⑧口
82
口①③口 |①-②-|
①口⑥③ |③-④-|
口②④⑤ |⑤-⑥-|
口口⑤①
83
①口口③ |①-②-|
⑥④口⑤ |③-④-|
⑤口④⑥ |⑤-⑥-|
③②口①
84
②③④⑤ |①--②③④|
口⑥①⑦ |⑤-⑥-|
⑦①⑧口 |⑦-⑧-|
⑤④③②
85
口口口口 |①---|
①③口口 |②-③-|
口∧口①
口口口②

口口口④
口⑤口口
口口口口 |④-⑤-|
口口⑤口
86
口①③⑤ |①-②-|
①口⑥③ |③-④-|
口口④① |⑤-⑥-|
②⑤口口
87
口①口口 |①---|
口口口口
①<口口
口口口①

③<口口
口②口② |②-③-|
②口口口
口口口口

⑤口口④
口口口口
口口口口 |④-⑤-|
口口⑤口
88
口口口口 |①②③---|
口口口⑤ |④---|
口①②③ |⑤---|
口④口口
89
口口口口 |①-②-|
口口口口
口口口口
①<②②

口口口口
③<口口 |③④--|
口口④④
③口口口

口口口口
⑤口⑤⑤
>⑤口口 |⑤---|
口口口口
90
>①口① |①-②-|
口口⑥口 |③-④-|
口①④⑤ |⑤-⑥-|
口口②③
91
口⑤⑤① |①-②-|
口⑥口② |③-④-|
⑤口④口 |⑤-⑥-|
口口口③
92
口口⑥① |①-②-|
口口口⑤ |③-④-|
口∨④口 |⑤-⑥-|
口①②③
93
口口口① |①-②-|
口①④口 |③-④-|
口∧⑥② |⑤-⑥-|
口①③⑤
94
口口①口 |①--②|
∨①口② |--|
①口口口
口口口口

口⑤口④
口口口口 |③-|
③③口口 |④-⑤-|
口口④口
95
口口口口 |①--②|
②口口∨ |--|
口口口①
口口口口

④口口口
口⑥⑤口
口口③③ |③-|
口④口口 |④-⑤⑥|
96
口口口口 |①--②|
∨口口② |--|
①口口口
口口口口

口口口④
口口口口
③③口口 |③-|
口口④口 |④---|
97
⑩口①⑨ |①②③④|
⑥②⑦口 |⑤⑥⑦⑧|
⑫⑧③⑤ |⑨⑩⑪⑫|
④口口⑪
98
口①①⑥ |①-②③|
口⑥口④ |④-⑤-|
口⑦③口 |⑥-⑦-|
⑥②⑤口
99
⑤⑥⑦⑧ |①-②③|
①口口④ |④--⑤⑥⑦|
口⑨③① |⑧-⑨-|
口②口口
100
口口口⑥ |①-②③|
①⑥口④ |④-⑤-|
口⑦③① |⑥-⑦-|
⑥②⑤口
101
⑤⑥⑦⑧ |①-②③|
①口口④ |④--⑤⑥⑦|
口⑨③① |⑧-⑨-|
口②口口
102
口口口⑥ |①-②③|
①⑥口④ |④-⑤-|
口⑦③① |⑥-⑦-|
⑥②⑤口
103
⑤⑥⑦⑧ |①-②③|
①口口④ |④--⑤⑥⑦|
口⑨③① |⑧-⑨-|
口②口口
104
⑤口口口 |①-②③|
①⑥⑧④ |④-⑤⑥|
口口③① |⑦-⑧⑨|
口②⑨⑦
105
⑤①①④ |①-②③|
⑤⑥⑨口 |-④⑤-|
③⑦⑩② |⑥⑦⑧⑨⑩⑪|
③⑧⑪口
106
③口①④ |①--②|
⑤⑥⑦① |--③-|
④口口③ |④--⑤⑥⑦|
②口口②
107
③③④④ |①--②|
口口口① |--③-|
口②②口 |④---|
④④③③
最終更新:2019年11月23日 03:10