アットウィキロゴ
アガット [ 2 ]
Bazole

BASIC

Level: 5
BPM: 200
Notes: 441

1
口口口口 |----|
口口口口 |----|
口口口口 |----|
口口口口 |----|
2
口口口口 |----|
②口口② |----|
口口口口 |①---|
口①①口 |--②-|
3
口口口口 |----|
口口口口 |----|
口口口口 |----|
口口口口 |----|
4
②口口② |----|
口口口口 |----|
口口口口 |①---|
口①①口 |--②-|
5
口口口口 |----|
口口口口 |----|
口口口口 |----|
口口口口 |----|
6
②口口② |----|
口口口口 |----|
口口口口 |①---|
口①①口 |--②-|
7
口②②口 |----|
口口口口 |----|
①口口① |①---|
口口口口 |--②-|
8
口口口口 |----|
口口口口 |----|
①②③④ |①-②-|
口口口口 |③-④-|
9
口口口口 |----|
①①①① |----|
口口口口 |----|
口口口口 |--①-|
10
口口口口 |----|
口口口口 |----|
口口口口 |----|
口口口口 |----|
11
口口口口 |----|
口口口口 |----|
口口口口 |----|
口口口口 |----|
12
口口口② |①---|
③④⑤口 |②---|
口口口① |--③-|
口口口① |④-⑤-|
13
口口③② |--①-|
口④口口 |--②-|
口口⑤① |③-④-|
口口口① |⑤---|
14
②口口口 |①---|
口⑤④③ |②---|
①口口口 |--③-|
①口口口 |④-⑤-|
15
②⑤口口 |--①-|
口口④口 |--②-|
①③口口 |③-④-|
①口口口 |⑤---|
16
口口口② |①---|
③④⑤口 |②---|
口口口① |--③-|
口口口① |④-⑤-|
17
口口③② |--①-|
口④口口 |--②-|
口口⑤① |③-④-|
口口口① |⑤---|
18
②口口口 |①---|
口⑤④③ |②---|
①口口口 |--③-|
①口口口 |④-⑤-|
19
②⑤口口 |--①-|
口口④口 |--②-|
①③口口 |③-④-|
①口口口 |⑤---|
20
口口①① |①---|
口口口口 |②---|
③④⑤口 |--③-|
口口②② |④-⑤-|
21
口口①① |--①-|
③④⑤口 |--②-|
口口口口 |③-④-|
口口②② |⑤---|
22
①①口口 |①---|
口口口口 |②---|
口⑤④③ |--③-|
②②口口 |④-⑤-|
23
①①口口 |--①-|
口⑤④③ |--②-|
口口口口 |③-④-|
②②口口 |⑤---|
24
口口①① |①---|
口⑤④③ |②---|
②②口口 |--③-|
口口口口 |④-⑤-|
25
口口①① |--①-|
口⑤④③ |--②-|
②②口口 |③-④-|
口口口口 |⑤---|
26
①①口口 |①---|
③④⑤口 |②---|
口口②② |--③-|
口口口口 |④-⑤-|
27
口口口口 |----|
口口口口 |----|
口口口口 |----|
口口口口 |----|
28
①口口① |①---|
③口口③ |②---|
口②④口 |③---|
口口口口 |④---|
29
①口口① |①---|
⑥⑤④③ |②---|
口②口口 |③-④-|
口口口口 |⑤-⑥-|
30
③①①③ |①---|
口口口口 |②---|
④口口② |③---|
口口口口 |④---|
31
口①①口 |①---|
口③口口 |②---|
口口④② |③-④-|
口⑤口口 |⑤---|
32
①口口① |①---|
③口口③ |②---|
口②④口 |③---|
口口口口 |④---|
33
①口口① |①---|
⑥⑤④③ |②---|
口②口口 |③-④-|
口口口口 |⑤-⑥-|
34
③①①③ |①---|
口口口口 |②---|
④口口② |③---|
口口口口 |④---|
35
口①①口 |①---|
口③口口 |②---|
口口④② |③-④-|
口⑤口口 |⑤---|
36
口③③口 |①---|
①口口① |②---|
口④④口 |③---|
②口口② |④---|
37
口③③口 |①---|
①口口① |②---|
口④④口 |③---|
②口口② |④---|
38
口③③口 |①---|
①口口① |②---|
口④④口 |③---|
②口口② |④---|
39
口口口口 |①---|
①口③① |②---|
口④口口 |③-④-|
②口⑤② |⑤---|
40
①口口① |①---|
口③③口 |②---|
②口口② |③---|
口④④口 |④---|
41
①口口① |①---|
口③③口 |②---|
②口口② |③---|
口④④口 |④---|
42
①口口① |①---|
口③③口 |②---|
②口口② |③---|
口④④口 |④---|
43
①口口① |①---|
③④⑤⑥ |②---|
②口口② |③-④-|
口口口口 |⑤-⑥-|
44
③①①② |①---|
口口口口 |②---|
口口口口 |③---|
口口口④ |④---|
45
口口口② |①---|
口口③口 |②---|
口④口口 |③---|
①口口口 |④---|
46
①①口口 |①---|
②②口口 |②---|
口口口口 |----|
③③口口 |③---|
47
口口口口 |----|
口口口口 |----|
口口口口 |----|
口口口口 |----|
48
口④口口 |①---|
口口③口 |②---|
口②口口 |③---|
口口①口 |④---|
49
口口①口 |①---|
口②口口 |②---|
口口③口 |③---|
口④口口 |④---|
50
口口口口 |①---|
①口口① |②---|
口口口口 |----|
②口口② |----|
51
口口口① |①---|
口口②口 |②---|
口③口口 |③---|
④口口口 |④---|
52
④口口口 |①---|
口口口③ |②---|
②口口口 |③---|
口口口① |④---|
53
口口口① |①---|
②口口口 |②---|
口口口③ |③---|
④口口口 |④---|
54
口口口口 |①---|
口①①口 |--②-|
口②②口 |----|
口③③口 |--③-|
55
口口口口 |----|
口口口口 |----|
口口口口 |----|
口口口口 |----|
56
口②口口 |①---|
②口口口 |----|
口口口口 |②---|
口口①① |----|
57
口口②口 |①---|
口口口② |----|
口口口口 |②---|
①①口口 |----|
58
口口口口 |①---|
口①①口 |--②-|
口②②口 |----|
口③③口 |③---|
59
口口口口 |①---|
①口口① |--②-|
③④⑤口 |--③-|
②口口② |④-⑤-|
60
口口口① |----|
口②口口 |①---|
口口口③ |②---|
口口口口 |③---|
61
口①①口 |①---|
④⑤口③ |②---|
口②②口 |③---|
口口口口 |④-⑤-|
62
口口口① |----|
口口口② |①---|
口④③口 |②---|
口口口口 |③-④-|
63
口口口口 |----|
①口口① |--①-|
口④③② |--②-|
口口口口 |③-④-|
64
①口口口 |----|
口口②口 |①---|
③④口口 |②---|
口口口口 |③-④-|
65
口口口口 |----|
口①①口 |--①-|
口④③② |--②-|
口口口口 |③-④-|
66
②口口① |----|
口③③口 |①---|
口口口口 |②---|
口口口口 |--③-|
67
口口口口 |--①-|
口口口口 |②---|
③④⑤口 |--③-|
①②②① |④-⑤-|
68
口口口① |----|
口②口口 |①---|
口口口③ |②---|
口口口口 |③---|
69
口①①口 |①---|
④⑤口③ |②---|
口②②口 |③---|
口口口口 |④-⑤-|
70
口④④① |----|
口口口② |①---|
口口口③ |②---|
口口口口 |③-④-|
71
口口口口 |----|
②①①口 |①---|
③口口口 |--②-|
④口口口 |③-④-|
72
口口口口 |--①-|
口④口① |②-③-|
口⑤口② |--④-|
口⑥口③ |⑤-⑥-|
73
⑤③③⑤ |--①-|
口口②① |②-③-|
口④④口 |--④-|
口口口口 |--⑤-|
74
口口口口 |--①-|
④口口① |②-③-|
⑤口口② |--④-|
⑥口口③ |⑤-⑥-|
75
口④④口 |--①-|
口口①口 |②-③-|
口口②口 |④---|
口口③口 |----|
76
②口③② |①---|
口④口口 |②---|
①口⑤① |--③-|
口口口口 |④-⑤-|
77
口②口口 |--①-|
口口口③ |--②-|
①口口③ |③---|
口口口口 |----|
78
口③口口 |①---|
④②②口 |②---|
口⑤口口 |--③-|
口①①口 |④-⑤-|
79
③口②口 |--①-|
口口口口 |--②-|
③口口① |③---|
口口口口 |----|
80
口口口口 |①---|
②口③② |②---|
口④口口 |--③-|
①口⑤① |④-⑤-|
81
口口口口 |--①-|
口②口③ |--②-|
口口口③ |③---|
①口口口 |----|
82
口②②口 |①---|
口③口口 |②---|
④①①口 |--③-|
口⑤口口 |④-⑤-|
83
口④④口 |--①-|
口口①口 |②-③-|
口⑤⑤② |④---|
口口③口 |⑤---|
84
口③③口 |①---|
②④④② |②---|
口⑤⑤口 |--③-|
①口口① |④-⑤-|

accuracy: 100%
最終更新:2022年05月30日 02:48