アットウィキロゴ
アガット [ 2 ]
Bazole

ADVANCED

Level: 8
BPM: 200
Notes: 762

1
口口口口 |----|
口口口口 |----|
口口口口 |----|
口口口口 |----|
2
口口口口 |----|
口口口口 |----|
①②③④ |①-②-|
口口口口 |③-④-|
3
口①口口 |--①-|
③③②口 |②---|
口口口口 |③---|
④④口口 |④---|
4
口口①① |①---|
③④⑤⑥ |②---|
口口②② |③-④-|
口口口口 |⑤-⑥-|
5
口口③③ |--①-|
口口口口 |②---|
①口④④ |③---|
口②口口 |④---|
6
③④⑤⑥ |①---|
①①口口 |②---|
口口口口 |③-④-|
②②口口 |⑤-⑥-|
7
⑥⑥口口 |--①-|
口④②口 |②---|
③①⑤口 |③-④-|
口口口口 |⑤-⑥-|
8
口口④口 |--①-|
口⑤②口 |②-③-|
口③⑥① |④-⑤-|
口⑦口口 |⑥-⑦-|
9
⑦④⑦① |--①-|
②④⑤① |②-③-|
②⑥⑤③ |④-⑤-|
口⑥口③ |⑥-⑦-|
10
口口口口 |----|
口口口口 |----|
口口口口 |----|
口口口口 |----|
11
口口口口 |----|
口口口口 |----|
口口口口 |----|
口口口口 |----|
12
②②⑤⑤ |①---|
口口④④ |②---|
口口③③ |--③-|
①①①① |④-⑤-|
13
②②口口 |--①-|
口⑤④口 |--②-|
口⑤④③ |③-④-|
①①口③ |⑤---|
14
②②口口 |①---|
口⑤④③ |②---|
口⑤④③ |--③-|
①①口口 |④-⑤-|
15
口口②② |--①-|
③⑤口④ |--②-|
③⑤口④ |③-④-|
口口①① |⑤---|
16
口②②口 |①---|
口④③⑤ |②---|
口④③⑤ |--③-|
口①①口 |④-⑤-|
17
②口口② |--①-|
③⑤④口 |--②-|
③⑤④口 |③-④-|
①口口① |⑤---|
18
口②②口 |①---|
⑤口口⑤ |②---|
④口口④ |--③-|
③①①③ |④-⑤-|
19
口②②口 |--①-|
口③④⑤ |--②-|
口③④⑤ |③-④-|
口①①口 |⑤---|
20
①口②② |①---|
口③④⑤ |②---|
口③④⑤ |--③-|
②口①① |④-⑤-|
21
口③②② |--①-|
口③④口 |--②-|
口⑤④口 |③-④-|
口⑤①① |⑤---|
22
①口②② |①---|
口③④⑤ |②---|
口③④⑤ |--③-|
②口①① |④-⑤-|
23
口口②② |--①-|
口口④⑤ |--②-|
口③④⑤ |③-④-|
口③①① |⑤---|
24
口①②② |①---|
口③④⑤ |②---|
②③④⑤ |--③-|
口口①① |④-⑤-|
25
口口①① |--①-|
口③④⑤ |--②-|
口③④⑤ |③-④-|
口口②② |⑤---|
26
②口①② |①---|
②口口口 |②---|
①③④⑤ |--③-|
①③④⑤ |④-⑤-|
27
口①口① |----①-|
口口①口 |----|
口口口口 |----|
口口口口 |----|
28
口口④口 |①-②-|
①口口④ |③-④-|
口口②口
③口口口

口⑦口口
⑦口口口
口⑤口口 |--⑤-|
口口口⑥ |⑥-⑦-|
29
⑧口③⑨ |--①-|
口①口③ |②-③-|
④⑤⑥⑦ |④⑤⑥⑦|
②口口口 |⑧-⑨-|
30
口口④口 |①-②-|
①口②④ |③-④-|
口口口口
口③口口

口⑦口口
⑦⑤口口
口口口口 |--⑤-|
口口⑥口 |⑥-⑦-|
31
⑥口口⑥ |--①-|
口④④口 |②-③-|
⑥口①⑥ |④-⑤-|
②⑤⑤③ |⑥---|
32
口④口口 |①-②-|
④口口① |③-④-|
口②口口
口口口③

口口⑦口
口口口⑦
口口⑤口 |--⑤-|
⑥口口口 |⑥-⑦-|
33
⑨③口⑧ |--①-|
③口①口 |②-③-|
⑦⑥⑤④ |④⑤⑥⑦|
口口口② |⑧-⑨-|
34
口④口口 |①-②-|
④②口① |③-④-|
口口口口
口口③口

口口⑦口
口口⑤⑦
口口口口 |--⑤-|
口⑥口口 |⑥-⑦-|
35
口②口口 |--①-|
⑪⑩⑨⑧ |②-③-|
④⑤⑥⑦ |④⑤⑥⑦|
③口①口 |⑧⑨⑩⑪|
36
②④①① |①-②-|
口口口口 |③-④-|
口口口口
口③口口

口口⑦口
口口口⑤
口口口口 |--⑤-|
口口⑥口 |⑥-⑦-|
37
③口口口 |--①-|
口①⑧⑧ |②-③-|
④⑤⑥⑦ |④⑤⑥⑦|
②口⑨⑨ |⑧-⑨-|
38
⑤④⑦② |①-②-|
①口口口 |③-④-|
口口口口 |--⑤-|
口③⑥口 |⑥-⑦-|
39
口口口③ |--①-|
④①①口 |②-③-|
⑥④⑤⑥ |④-⑤-|
②口口⑤ |⑥---|
40
①①④口 |①-②-|
口口口② |③-④-|
口口口口
口口③口

口⑦口口
⑤口口口
口口口口 |--⑤-|
口⑥口口 |⑥-⑦-|
41
①口口③ |--①-|
⑧⑧口口 |②-③-|
⑦⑥⑤④ |④⑤⑥⑦|
⑨⑨口② |⑧-⑨-|
42
②⑦④口 |①-②-|
口口①① |③-④-|
口口口⑤ |--⑤-|
口⑥③口 |⑥-⑦-|
43
①口口③ |--①-|
⑧⑨⑩⑪ |②-③-|
④⑤⑥⑦ |④⑤⑥⑦|
口口口② |⑧⑨⑩⑪|
44
⑤①①③ |①---|
口口⑦口 |②-③-|
口⑥口口 |④-⑤-|
②口口④ |⑥-⑦-|
45
⑥口②⑥ |①---|
①③口① |②-③-|
⑦口④⑦ |④-⑤-|
口⑤口口 |⑥-⑦-|
46
口⑥口⑥ |①-②-|
②口①口 |③-④-|
⑦口口⑦ |--⑤-|
④⑤③⑤ |⑥-⑦-|
47
③⑥⑥口 |--①-|
⑤②口④ |②-③-|
口口①口 |④--⑤|
口④⑤口 |--⑥-|
48
④口口口 |①-②-|
口⑦③口 |③-④-|
④②⑥口 |--⑤-|
①口口⑤ |⑥-⑦-|
49
口②②① |①---|
③口口③ |②-③-|
口口口①
口口口口

⑥口口⑥
口口口口
口⑤⑤口 |④-⑤-|
口④④口 |--⑥-|
50
口口④口 |①-②-|
③⑤口③ |③---|
②口口② |④---|
①口口① |⑤---|
51
口①⑤口 |①-②-|
口⑥②口 |③-④-|
口③⑦口 |⑤-⑥-|
口⑧④口 |⑦-⑧-|
52
口③口④ |①-②-|
口口②④ |③-④-|
⑤⑥⑦① |--⑤-|
口口口口 |⑥-⑦-|
53
①口①口 |①---|
③口⑤口 |--②-|
口④口口 |--③-|
口②口② |④-⑤-|
54
②②①① |①---|
口⑤口口 |--②-|
①口④② |--③-|
口③口口 |④-⑤-|
55
口③①① |--①-|
口口④① |--②-|
口⑤口口 |③-④-|
②口⑥口 |⑤-⑥-|
56
①④③② |①---|
①口口口 |--②③|
口口⑥⑤ |④---|
口口口口 |--⑤⑥|
57
口②③口 |①---|
②口口③ |----|
口①口口 |②--③|
口④④口 |--④-|
58
③⑤⑤① |①-②-|
口①③口 |--③-|
口⑥⑥口 |④---|
④口口② |⑤-⑥-|
59
③⑥⑥③ |①--②|
①③③① |--③-|
②口⑤② |--④-|
④口口口 |⑤-⑥-|
60
⑥⑥口口 |--①-|
②口口④ |②-③-|
②⑦⑤④ |④-⑤-|
口③①口 |⑥-⑦-|
61
⑧⑧①① |①-②③|
④③②⑦ |④---|
口口⑥口 |⑤-⑥-|
口⑤口口 |⑦-⑧-|
62
口口①⑨ |--①-|
⑧②口口 |②-③-|
③口口⑨ |④⑤⑥⑦|
④⑤⑥⑦ |⑧-⑨-|
63
①⑥⑥口 |--①-|
口②口口 |②-③-|
口⑤③口 |--④-|
口口口④ |⑤-⑥-|
64
⑧口⑨⑨ |--①-|
口④⑤② |②-③-|
口⑥⑦② |④⑤⑥⑦|
口①③口 |⑧-⑨-|
65
口⑤⑤口 |--①-|
①口口口 |②-③-|
口⑥⑥② |--④-|
③口口④ |⑤-⑥-|
66
口⑨⑧⑦ |--①②|
⑩③②① |③-④⑤|
⑩口口口 |⑥-⑦⑧|
④⑤⑥口 |⑨-⑩-|
67
口⑤⑤口 |--①-|
口②②① |②---|
口口④① |--③-|
③口口口 |④-⑤-|
68
⑥⑥口口 |--①-|
②口口④ |②-③-|
②⑦⑤④ |④-⑤-|
口③①口 |⑥-⑦-|
69
⑧⑧①① |①-②③|
④③②⑦ |④---|
口口⑥口 |⑤-⑥-|
口⑤口口 |⑦-⑧-|
70
口口②② |--①-|
④④⑤⑤ |②-③-|
⑦口口⑦ |④-⑤-|
①⑥⑥③ |⑥-⑦-|
71
口①②③ |--①②|
④口口⑥ |③---|
口⑤口口 |--④-|
口口⑥口 |⑤-⑥-|
72
口③口口 |--①-|
口⑥②⑥ |②-③-|
③口⑤① |--④-|
口口口④ |⑤-⑥-|
73
③③③③ |--①-|
①口口口 |②-③-|
⑤②口⑤ |--④-|
④④④④ |--⑤-|
74
③⑥口⑥ |--①-|
口②⑤③ |②-③-|
口④①口 |--④-|
口口口口 |⑤-⑥-|
75
③口③口 |--①-|
口④⑤⑥ |②-③-|
②④⑤⑥ |④--⑤|
口口①口 |--⑥-|
76
②②⑤⑤ |①---|
口口④④ |②---|
口③③口 |--③-|
①①①① |④-⑤-|
77
②②口口 |--①-|
口⑤④口 |--②-|
口⑤④③ |③--④|
①①口③ |--⑤-|
78
②②口口 |①---|
口⑤④③ |②---|
口⑤④③ |--③-|
①①口口 |④-⑤-|
79
口口②② |--①-|
③⑤口④ |--②-|
③⑤口④ |③--④|
口口①① |--⑤-|
80
口②②口 |①---|
口④③⑤ |②---|
口④③⑤ |--③-|
口①①口 |④-⑤-|
81
②口口② |--①-|
③⑤④口 |--②-|
③⑤④口 |③--④|
①口口① |--⑤-|
82
⑥④③⑤ |①-②-|
⑧口口⑦ |③-④-|
口口口口 |⑤-⑥-|
口②①口 |⑦-⑧-|
83
⑨口口⑤ |①-②-|
口⑩⑥口 |③-④-|
②⑦⑪① |⑤⑥⑦⑧|
⑧④③⑫ |⑨⑩⑪⑫|
84
口①①口 |①---|
口口口口 |②---|
口口口口
口②②口

⑤⑤⑤⑤
④口口④
③口口③ |--③-|
口口口口 |④-⑤-|

accuracy: 100%
最終更新:2022年05月30日 03:08