アットウィキロゴ
アガット [ 2 ]
Bazole

EXTREME

Level: 10.6
BPM: 200
Notes: 942

1
口口口口 |----|
口口口口 |----|
口口口口 |----|
口口口口 |----|
2
口口口口 |----|
①②③④ |----|
口口口口 |①-②-|
口口口口 |③-④-|
3
③①口④ |--①-|
⑤③④⑥ |②---|
口⑤⑥口 |③-④-|
口②口口 |⑤-⑥-|
4
口②②口 |①-②-|
口口口口 |③---|
④⑤⑥⑦ |④-⑤-|
①口口③ |⑥-⑦-|
5
④口①③ |--①-|
⑥④③⑤ |②---|
口⑥⑤口 |③-④-|
口口②口 |⑤-⑥-|
6
④②②④ |①-②-|
⑥口口⑥ |③---|
⑤口口⑤ |④-⑤-|
③⑦⑦① |⑥-⑦-|
7
⑦②②⑦ |--①-|
口⑥⑤口 |②---|
口④③口 |③④⑤⑥|
①⑧⑧① |⑦-⑧-|
8
⑨①①⑦ |--①-|
②口口③ |②③④⑤|
④⑥⑥⑤ |⑥-⑦-|
口⑧⑧口 |⑧-⑨-|
9
⑥③④⑥ |--①-|
①⑦⑦② |②-③-|
③⑦⑦④ |④-⑤-|
②⑤⑤① |⑥-⑦-|
10
口口口口 |----|
口口口口 |----|
口口口口 |----|
口口口口 |----|
11
口口口口 |----|
口口口口 |----|
口口口口 |----|
口口口口 |----|
12
口②②口 |①---|
⑤④③口 |②---|
⑤④③口 |--③-|
①①①① |④-⑤-|
13
②②⑤口 |--①-|
口④⑤口 |--②-|
口④③口 |③-④-|
①①③口 |⑤---|
14
口口口① |①---|
②③③① |②---|
②④④① |--③-|
口⑤⑤① |④-⑤-|
15
口口口口 |--①-|
⑤⑤③③ |--②-|
②④④① |③-④-|
②口口① |⑤---|
16
①①①① |①---|
口③④⑤ |②---|
口③④⑤ |--③-|
口②②口 |④-⑤-|
17
口③②② |--①-|
口③④口 |--②-|
口⑤④口 |③-④-|
口⑤①① |⑤---|
18
①⑤⑤口 |①---|
①④④② |②---|
①③③② |--③-|
①口口口 |④-⑤-|
19
②⑤口① |--①-|
②⑤④① |--②-|
口③④口 |③-④-|
口③口口 |⑤---|
20
⑦⑦①① |①-②-|
口⑥⑥④ |③-④-|
②口⑤⑤ |--⑤-|
口口③③ |⑥-⑦-|
21
口口①② |--①-|
③④⑤口 |--②-|
③④⑤口 |③-④-|
口口①② |⑤---|
22
①①⑦⑦ |①-②-|
④⑥⑥口 |③-④-|
⑤⑤口② |--⑤-|
③③口口 |⑥-⑦-|
23
②①口口 |--①-|
⑥⑤④③ |--②-|
⑦⑤④③ |③-④-|
②①口口 |⑤-⑥⑦|
24
口④①① |①-②-|
口口口口 |③-④-|
口口口口
口②③③

口口⑦⑦
口⑥⑥口
口口⑤⑤ |--⑤-|
口口口口 |⑥-⑦-|
25
①口口口 |--①-|
①⑤④③ |--②-|
口⑤④③ |③-④-|
②②口口 |⑤---|
26
①①④口 |①-②-|
口口口口 |③-④-|
口口口口
③③②口

⑦口口⑦
口⑤口⑥
⑤口⑥口 |--⑤-|
口口口口 |⑥-⑦-|
27
口①口口 |----①-|
①口①口 |----|
口①口口 |----|
口口口口 |----|
28
口⑤②口 |①-②③|
③⑥⑨口 |④-⑤-|
口口④⑦ |--⑥⑦|
①⑧口① |⑧-⑨-|
29
⑤③①口 |--①②|
⑥⑨⑨② |③-④-|
⑦④④口 |⑤⑥⑦⑧|
⑧⑩⑩口 |⑨-⑩-|
30
口②⑤口 |①-②③|
口⑨⑥③ |④-⑤-|
⑦④口① |--⑥⑦|
口口⑧① |⑧-⑨-|
31
⑥①③⑤ |--①②|
②⑦⑦口 |③-④-|
⑥④④⑤ |⑤-⑥-|
口⑦⑦口 |⑦---|
32
口②⑤口 |①-②③|
口⑨⑥③ |④-⑤-|
⑦④口口 |--⑥⑦|
①口⑧① |⑧-⑨-|
33
口①③⑤ |--①②|
②⑨⑨⑥ |③-④-|
口④④⑦ |⑤⑥⑦⑧|
口⑩⑩⑧ |⑨-⑩-|
34
口⑤②口 |①-②③|
③⑥⑨口 |④-⑤-|
①口④⑦ |--⑥⑦|
①⑧口口 |⑧-⑨-|
35
①⑨②口 |--①②|
③⑩口④ |③-④-|
⑤⑪⑥口 |⑤⑥⑦⑧|
⑦⑫⑧口 |⑨⑩⑪⑫|
36
①口③② |①-②③|
④⑩④⑦ |④-⑤-|
⑥口⑧⑤ |⑥-⑦⑧|
⑨口口⑨ |⑨-⑩-|
37
①⑪③② |①-②③|
④⑪④⑩ |④-⑤-|
⑥⑨⑧⑤ |⑥⑦⑧⑨|
⑩⑦⑥口 |⑩-⑪-|
38
①口③② |①-②③|
④⑩④⑦ |④-⑤-|
⑥口⑧⑤ |⑥-⑦⑧|
⑨口口⑨ |⑨-⑩-|
39
①口③② |①-②③|
④口④口 |④-⑤-|
⑥口⑦⑤ |⑥-⑦-|
⑧⑥口⑧ |⑧---|
40
②③口① |①-②③|
⑦④⑩④ |④-⑤-|
⑤⑧口⑥ |⑥-⑦⑧|
⑨口口⑨ |⑨-⑩-|
41
②③⑪① |①-②③|
⑩④⑪④ |④-⑤-|
⑤⑧⑨⑥ |⑥⑦⑧⑨|
口⑥⑦⑩ |⑩-⑪-|
42
②③口① |①-②③|
⑦④⑩④ |④-⑤-|
⑤⑧口⑥ |⑥-⑦⑧|
⑨口口⑨ |⑨-⑩-|
43
②③⑧① |①-②③|
⑦④⑩④ |④-⑤-|
⑤⑬口⑥ |⑥⑦⑧⑨|
⑪⑨口⑫ |⑩⑪⑫⑬|
44
①⑨⑤① |①---|
口③⑩④ |②-③④|
⑥口⑦口 |⑤-⑥⑦|
口⑧②口 |⑧-⑨⑩|
45
⑥口④① |①---|
口⑥口④ |②-③-|
⑦③⑤① |④-⑤-|
②⑦口⑤ |⑥-⑦-|
46
口⑥⑥① |①②③④|
②口口⑦ |⑤-⑥-|
口⑤⑧① |--⑦-|
③⑨④口 |⑧-⑨-|
47
⑦⑦口④ |--①②|
①②③⑤ |③-④-|
口⑥口口 |⑤--⑥|
⑥口⑤口 |--⑦-|
48
口口③口 |①-②-|
口口⑤⑦ |③-④-|
②口④① |--⑤-|
口⑥④④ |⑥-⑦-|
49
①③口② |①---|
①①口口 |②-③-|
⑤⑤口④ |④-⑤-|
⑤口口⑥ |--⑥-|
50
口④③③ |①-②-|
①口⑤③ |③-④⑤|
口口口口
口②口口

⑩口口口
⑪⑦口口
⑫口⑧⑥ |⑥-⑦⑧|
口口口⑨ |⑨--⑩⑪⑫|
51
口⑥口⑤ |①-②-|
口⑥④⑤ |③-④-|
⑧③⑦口 |⑤-⑥-|
①⑧②⑦ |⑦-⑧-|
52
①口①口 |①-②-|
③口④口 |③-④-|
口②口④
口口口口

⑦⑧口口
口⑥口口
口口⑤口 |--⑤-|
口口口口 |⑥-⑦⑧|
53
口口①口 |①---|
口口口③ |②-③-|
口口口③
②口口②

⑥⑦⑦⑤
④口口口
④⑥⑤口 |④-⑤-|
口口口口 |⑥-⑦-|
54
⑨⑩⑩⑧ |①②③④|
⑦④⑤⑥ |⑤⑥⑦-|
⑦⑨⑧口 |--⑧-|
口①②③ |⑨-⑩-|
55
口口口口 |--①-|
②④②⑥ |--②-|
③口⑤口 |③-④-|
①口①口 |⑤-⑥-|
56
①③⑧② |①---|
④⑨⑥口 |②--③④⑤|
⑦⑤⑩口 |⑥---|
口口口口 |⑦--⑧⑨⑩|
57
③口口口 |①---|
④口口① |②---|
⑤口口② |③--④|
口口口口 |--⑤-|
58
口①口口 |①-②-|
口①①口 |--③-|
口②①②
③②③②

④⑥⑥④
口口口⑤
⑤口口口 |④---|
口口口口 |⑤-⑥-|
59
⑥⑥口③ |①--②|
③②②⑤ |--③-|
口②②③ |--④-|
③①④① |⑤-⑥-|
60
口口⑧⑨ |--①②|
口⑤⑥⑦ |③-④⑤|
②③④口 |⑥-⑦⑧|
口①⑪⑩ |⑨-⑩⑪|
61
②⑩口⑪ |①---②③④⑤|
③⑧口⑨ |⑥---|
④⑤⑥⑦ |⑦⑧⑨⑩|
⑫①口⑫ |⑪-⑫-|
62
④口口⑩ |--①②|
①⑪⑨⑧ |③-④⑤|
⑤②⑦⑥ |⑥⑦⑧⑨|
⑪口③口 |⑩-⑪-|
63
⑥⑥③口 |--①-|
②口口⑤ |②-③-|
口②口③ |--④-|
口①④① |⑤-⑥-|
64
口⑪⑪口 |--①②|
⑦⑤⑥⑩ |③-④⑤|
②③④⑩ |⑥⑦⑧⑨|
⑨①⑧口 |⑩-⑪-|
65
②⑥口① |--①-|
④③③口 |②-③-|
口①②⑤ |--④-|
④口⑤口 |⑤-⑥-|
66
⑤⑬⑦⑨ |---①②③|
⑬⑥⑩⑧ |④--⑤⑥⑦|
①⑪③口 |⑧--⑨⑩⑪|
⑫②口④ |⑫-⑬-|
67
②口⑤⑤ |--①-|
④口口口 |②---|
②口①② |--③-|
口③②① |④-⑤-|
68
⑨⑧口口 |--①②|
⑦⑥⑤口 |③-④⑤|
口④③② |⑥-⑦⑧|
⑩⑪①口 |⑨-⑩⑪|
69
⑪口⑩② |①---②③④⑤|
⑨口⑧③ |⑥---|
⑦⑥⑤④ |⑦⑧⑨⑩|
⑫口①⑫ |⑪-⑫-|
70
口口口③ |--①②|
⑨②⑥⑨ |③-④⑤|
⑤口⑦① |⑥-⑦⑧|
⑩⑧④⑩ |⑨-⑩-|
71
⑥③②① |----①②③④|
⑨④口⑩ |⑤---|
⑧⑤⑦⑩ |--⑥⑦|
口口口⑩ |⑧⑨⑩-|
72
⑩②⑥① |--①②|
⑩⑦④⑨ |③④⑤-|
⑩③⑧口 |--⑥⑦|
⑤⑤⑤口 |⑧⑨⑩-|
73
口⑥口⑥ |--①②|
⑦口②口 |③④⑤-|
⑦③口① |--⑥-|
⑦⑤④⑤ |--⑦-|
74
①⑥②⑩ |--①②|
⑨④⑦⑩ |③④⑤-|
口⑧③⑩ |--⑥⑦|
口⑤⑤⑤ |⑧⑨⑩-|
75
⑥⑥口口 |--①②|
口②⑦口 |③④⑤-|
①⑦③⑧ |⑥--⑦|
⑤④⑤⑧ |--⑧-|
76
口⑦①口 |①②③④|
⑪②⑧⑤ |⑤-⑥-|
⑥⑨③⑫ |⑦⑧⑨⑩|
口④⑩口 |⑪-⑫-|
77
⑦⑦①口 |①②③④|
⑨②口⑤ |⑤-⑥-|
⑥口③⑨ |⑦--⑧|
口④⑧⑧ |--⑨-|
78
口⑦①口 |①②③④|
⑪②⑧⑤ |⑤-⑥-|
⑥⑨③⑫ |⑦⑧⑨⑩|
口④⑩口 |⑪-⑫-|
79
⑦⑦①口 |①②③④|
⑨②口⑤ |⑤-⑥-|
⑥口③⑨ |⑦--⑧|
口④⑧⑧ |--⑨-|
80
⑦⑥⑫① |①②③④|
⑪②⑧⑤ |⑤-⑥-|
口⑨③口 |⑦⑧⑨⑩|
④口口⑩ |⑪-⑫-|
81
⑧口口① |①②③④|
⑧②⑨⑤ |⑤-⑥-|
口口③⑦ |⑦--⑧|
④⑦⑥⑨ |--⑨-|
82
口③②口 |①②③④|
口⑤口口 |⑤⑥⑦⑧|
①⑦④⑧
口口⑥口

⑯口口⑩
⑪口口⑫
⑮口口口 |⑨⑩⑪⑫|
⑬⑨口⑭ |⑬⑭⑮⑯|
83
⑯②①⑨ |①②③④|
⑮④③⑩ |⑤⑥⑦⑧|
⑭⑥⑤⑪ |⑨⑩⑪⑫|
⑬⑧⑦⑫ |⑬⑭⑮⑯|
84
口①①口 |①---|
口口口口 |②---|
口②②口
口口口口

⑤⑤⑤⑤
口⑤⑤口
④口口④ |--③-|
③③③③ |④-⑤-|
最終更新:2022年05月30日 03:27