アットウィキロゴ
Be a Hero!
中島由貴

BASIC

Level: 4
BPM: 190
Notes: 314

1
口口口口 |----|
口口口口 |----|
口口口口 |----|
口口口口 |----|
2
口口口口 |①---|
①口口① |----|
口口口口 |----|
②口口② |--②-|
3
口口口口 |----|
①口口① |----|
口口口口 |----|
口口口口 |--①-|
4
口口口口 |----|
口口口口 |----|
口口口口 |----|
口①①口 |--①-|
5
口口口口 |----|
口②②口 |--①-|
口①①口 |----|
口口口口 |--②-|
6
口口口口 |----|
口口口口 |----|
口口口口 |----|
口口口口 |----|
7
口口口① |①---|
口口②口 |----|
口口口口 |②---|
口口口口 |----|
8
口口口口 |①---|
口口口口 |----|
口①口口 |②---|
②口口口 |----|
9
①口口口 |①---|
②口口口 |----|
口口口口 |②---|
口口口口 |----|
10
口口①口 |①---|
口②口口 |②---|
口口③口 |③---|
口④口口 |④---|
11
①口口口 |①---|
口②口口 |----|
口口口口 |②---|
口口口口 |----|
12
口口口口 |①---|
口口口口 |----|
口口①口 |②---|
口口口② |----|
13
口口口① |①---|
口口口② |----|
口口口口 |②---|
口口口口 |----|
14
口①口口 |①---|
口口②口 |②---|
口③口口 |③---|
口口④口 |④---|
15
口口口口 |①---|
口口口口 |②---|
④③②① |③---|
口口口口 |④---|
16
口口口口 |①---|
④③②① |②---|
口口口口 |③---|
口口口口 |④---|
17
口③②① |①---|
口口口口 |②---|
口口口口 |③---|
口口口口 |----|
18
口口口口 |①---|
①口口② |----|
口口口口 |②---|
口口口口 |----|
19
口口口口 |①---|
口①①口 |②---|
②③④口 |③---|
口口口口 |④---|
20
口口口口 |①---|
②③④口 |②---|
口口口① |③---|
口口口口 |④---|
21
口口口口 |①---|
②口口① |----|
口口口口 |②---|
口口口口 |----|
22
口①①口 |①---|
口②②口 |--②-|
口③③口 |----|
口口口口 |③---|
23
①②③口 |----|
口口口口 |①---|
口口口口 |②---|
口口口口 |③---|
24
口口口① |①---|
②③④口 |②---|
口口口口 |③---|
口口口口 |④---|
25
口口口口 |①---|
口口口① |②---|
②③口口 |③---|
口口口口 |----|
26
①口口② |①---|
口口口口 |----|
口口口口 |②---|
口口口口 |----|
27
口口口口 |①---|
口①①口 |②---|
口④③② |③---|
口口口口 |④---|
28
口口口口 |①---|
口④③② |②---|
①口口口 |③---|
口口口口 |④---|
29
口②②口 |①---|
①口口口 |----|
口口口口 |②---|
口口口口 |----|
30
口口口口 |①---|
②口口② |----|
口①①口 |②---|
口口口口 |----|
31
口口口口 |①---|
口口口口 |--②-|
②口口② |----|
①口口① |----|
32
口②口口 |----|
口口口① |--①-|
口口口口 |----|
口口口口 |②---|
33
口口口② |①---|
口①口口 |----|
口口口口 |----|
口口口口 |--②-|
34
口①口口 |----|
口口口③ |①---|
口口②口 |--②-|
口口口口 |--③-|
35
口口口口 |①---|
口口①口 |----|
口口口口 |----|
口口口口 |----|
36
口口②口 |----|
①口口口 |--①-|
口口口口 |----|
口口口口 |②---|
37
②口口口 |①---|
口口①口 |----|
口口口口 |----|
口口口口 |--②-|
38
口口①口 |----|
③口口口 |①---|
口②口口 |--②-|
口口口口 |--③-|
39
口②②口 |①---|
口①口口 |----|
口口口口 |②---|
口口口口 |----|
40
②③口口 |①---|
口口口口 |----|
口①①口 |②---|
口口口口 |③---|
41
口口①② |①---|
口口口③ |②---|
口口口④ |③---|
口口口口 |④---|
42
口口口口 |①---|
口口③② |----|
口口口口 |②---|
口口口① |③---|
43
口口口口 |①---|
②①口口 |②---|
③口口口 |③---|
④口口口 |④---|
44
口口口口 |①---|
口口①口 |②---|
口口②口 |③---|
口口③口 |----|
45
口口口口 |①---|
口①口口 |②---|
口②口口 |③---|
口③口口 |----|
46
口口口口 |①---|
①④④① |②---|
②口口② |③---|
③口口③ |--④-|
47
口口口口 |----|
口口口口 |----|
①②口口 |①---|
口口口口 |②---|
48
口口③② |①---|
口口口口 |----|
口口①口 |②---|
口口口口 |③---|
49
②①口口 |①---|
③口口口 |②---|
④口口口 |③---|
口口口口 |④---|
50
口口口口 |①---|
②③口口 |----|
口口口口 |②---|
①口口口 |③---|
51
口口口口 |①---|
口口①② |②---|
口口口③ |③---|
口口口④ |④---|
52
口①①口 |①---|
口口口④ |②-③-|
口②②口 |--④-|
口③③⑤ |--⑤-|
53
口口③口 |--①-|
①口口口 |--②-|
口口口口 |----|
②口口口 |③---|
54
口口口口 |①---|
口①口口 |②---|
口口②口 |③---|
口③④口 |④---|
55
口③④口 |①---|
口口②口 |②---|
口①口口 |③---|
口口口口 |④---|
56
口口口口 |----|
口口口口 |----|
①①①① |①---|
口口口口 |----|
57
口③口① |①---|
④口②口 |②---|
口口口口 |③---|
口口口口 |④---|
58
①口③口 |①---|
口②口④ |②---|
口口口口 |③---|
口口口口 |④---|
59
口③口① |①---|
④口②口 |②---|
口口口口 |③---|
口口口口 |④---|
60
①口口口 |①---|
口②口口 |②---|
口口③口 |③---|
口口口口 |----|
61
口口口口 |①---|
口②口① |----|
口口口口 |②---|
口口口口 |----|
62
口口口口 |①---|
口口口口 |----|
①口②口 |②---|
口口口口 |----|
63
口口口口 |①---|
口①①口 |----|
口②②口 |②---|
口口口口 |----|
64
口③③口 |①---|
口口口口 |----|
②口口② |②---|
口①①口 |③---|
65
口口口口 |①---|
①口③口 |②---|
口②口④ |③---|
口口口口 |④---|
66
口口口口 |①---|
口③口① |②---|
④口②口 |③---|
口口口口 |④---|
67
口口口口 |①---|
①口③口 |②---|
口②口④ |③---|
口口口口 |④---|
68
口①①口 |①---|
口③口口 |----|
②口口口 |②---|
口口口口 |③---|
69
口口①口 |①---|
口口口口 |----|
口口口口 |----|
口口口口 |----|
70
口①口② |----|
口口口口 |--①-|
口口口口 |----|
口口口口 |②---|
71
口口口口 |①---|
口口口① |----|
口口②口 |②---|
口口口口 |----|
72
口口口口 |①---|
口②②口 |----|
口口口口 |②---|
口①口口 |----|
73
①口口① |①---|
口口口口 |----|
口口口口 |----|
口口口口 |----|
74
口口口口 |①---|
口②①口 |----|
口口口口 |②---|
口口口口 |----|
75
口口口口 |①---|
口口口口 |----|
口②①口 |②---|
口口口口 |----|
76
口口口口 |①---|
口口口口 |----|
口口口口 |②---|
口②①口 |----|
77
口口口① |①---|
口口②口 |----|
口口口口 |②---|
口口口口 |----|
78
口口口口 |①---|
口口口口 |----|
口①口口 |②---|
②口口口 |----|
79
口口口口 |①---|
口①①口 |----|
口②②口 |②---|
口口口口 |----|
80
口口口口 |①---|
①口口① |----|
②口口② |②---|
口口口口 |----|
81
口口口口 |①---|
口①①口 |----|
口②②口 |②---|
口口口口 |----|
82
口口口口 |①---|
①口口① |----|
②口口② |②---|
口口口口 |----|
83
口口口口 |----|
口口口口 |----|
口口口口 |----|
口口口口 |----|
84
口口口口 |①---|
口③口① |②---|
④口②口 |③---|
口口口口 |④---|
85
口口口口 |①---|
①口③口 |②---|
口②口④ |③---|
口口口口 |④---|
86
口口口口 |①---|
口③口① |②---|
④口②口 |③---|
口口口口 |④---|
87
口①①口 |①---|
口口③口 |----|
口口口② |②---|
口口口口 |③---|
88
口①口口 |①---|
口口口口 |----|
口口口口 |----|
口口口口 |----|
89
②口①口 |----|
口口口口 |--①-|
口口口口 |----|
口口口口 |②---|
90
口口口口 |①---|
①口口口 |----|
口②口口 |②---|
口口口口 |----|
91
口口口口 |①---|
口②②口 |----|
口口口口 |②---|
口口①口 |----|
92
①口口① |①---|
口口口口 |----|
口口口口 |----|
口口口口 |----|
93
口口口口 |①---|
④③②① |②---|
口口口口 |③---|
口口口口 |④---|
94
口①口口 |①---|
口口②口 |②---|
口③口口 |③---|
口口④口 |④---|
95
口口①口 |①---|
口②口口 |②---|
口口③口 |③---|
口④口口 |④---|
96
②口口口 |①---|
口③③口 |----|
①口口① |--②-|
口口口口 |--③-|
97
口口口① |----|
口②②口 |----|
口口口口 |--①-|
口口口口 |--②-|
98
①口口口 |----|
口②②口 |----|
口口口口 |--①-|
口口口口 |--②-|
99
口口口口 |----|
①口口① |--①-|
②口口② |----|
口口口口 |--②-|

accuracy: 100%
最終更新:2022年04月14日 14:58