アットウィキロゴ
Be a Hero!
中島由貴

ADVANCED

Level: 8
BPM: 190
Notes: 793

1
口口口口 |----|
口口口口 |----|
口口口口 |----|
口口口口 |----|
2
口④口④ |①-②-|
口口③口 |----|
口①①口 |--③-|
口②②口 |--④-|
3
③口③口 |--①-|
口②口口 |----|
口①口① |--②-|
口口口口 |--③-|
4
③口口口 |--①-|
口③②口 |----|
①口①口 |--②-|
口口口口 |--③-|
5
口口①口 |--①-|
口④④① |--②-|
②口口③ |--③-|
口②③口 |--④-|
6
口口口口 |----|
口口口口 |----|
④③②① |①-②-|
口口口口 |③-④-|
7
③口口① |①---|
口④②口 |②---|
口口口口 |③---|
口②④口 |④---|
8
⑥①口⑥ |①-②-|
②口⑤④ |③-④⑤|
口③口口 |----|
口口口口 |⑥---|
9
口②①口 |①---|
③口口④ |②---|
②口口① |③---|
口③④口 |④---|
10
口⑤①口 |①-②-|
口②⑥口 |③-④-|
口⑦③口 |⑤-⑥-|
口④⑧口 |⑦-⑧-|
11
①口口③ |①---|
口②④口 |②---|
口口口口 |③---|
口②④口 |④---|
12
⑥口①⑥ |①-②-|
④⑤口② |③-④⑤|
口口③口 |----|
口口口口 |⑥---|
13
口①②口 |①---|
④口口③ |②---|
①口口② |③---|
口④③口 |④---|
14
口①⑤口 |①-②-|
口⑥②口 |③-④-|
口③⑦口 |⑤-⑥-|
口⑧④口 |⑦-⑧-|
15
口③口口 |①---|
口口②④ |②---|
①⑤口① |③--④|
口口口口 |--⑤-|
16
口口①④ |①--②|
②口⑤口 |--③-|
口⑥③口 |--④-|
口口口口 |⑤-⑥-|
17
④②②口 |①--②|
口⑤口口 |--③-|
口口⑥口 |--④-|
①③③口 |⑤-⑥-|
18
⑧口口口 |①-②-|
④口①⑤ |③-④-|
⑥②口③ |⑤-⑥-|
口口口⑦ |⑦-⑧-|
19
口口③口 |①---|
④①①口 |②---|
口②⑤口 |③--④|
口口口口 |--⑤-|
20
④①口口 |①--②|
口⑤口② |--③-|
口③⑥口 |--④-|
口口口口 |⑤-⑥-|
21
口口口口 |①---|
口③②口 |--②-|
口②③口 |----|
口口口① |--③-|
22
①①口② |①--②|
口口口② |--③-|
口口口口
口口③③

口⑥⑥口
口口口口
④⑤⑤口 |-④--|
④口口口 |⑤-⑥-|
23
口口口口 |----|
口②口① |①---|
口口口③ |②--③|
口④口口 |--④-|
24
④口口口 |①--②|
口⑤①口 |--③-|
②口⑥口 |--④-|
口口③口 |⑤-⑥-|
25
口②②④ |①--②|
口口⑤口 |--③-|
口⑥口口 |--④-|
口③③① |⑤-⑥-|
26
口口口⑧ |①-②-|
⑤①口④ |③-④-|
③口②⑥ |⑤-⑥-|
⑦口口口 |⑦-⑧-|
27
⑤口口口 |①---|
口①①② |②---|
口③④口 |③-④-|
口口口口 |--⑤-|
28
口①口⑤ |①--②|
口口⑥② |--③-|
口③口口 |--④-|
口口口④ |⑤-⑥-|
29
②⑤⑤口 |①---|
口③口口 |--②-|
口口口④ |③--④|
口①①口 |--⑤-|
30
口⑤⑤② |①---|
口口③口 |--②-|
④①①口 |③--④|
口口口口 |--⑤-|
31
口口口口 |①---|
②②②② |--②-|
口口口口 |----|
口①①口 |----|
32
②口③口 |----|
②④③口 |--①-|
口④口口 |--②-|
①口口① |③-④-|
33
口②口② |①---|
③口③① |--②-|
口口口① |----|
口口口口 |--③-|
34
⑤④④⑤ |-①--|
口②口② |②--③|
口⑥⑥口 |--④-|
口①③口 |⑤-⑥-|
35
口口口口 |①---|
口③②口 |--②-|
②口口③ |----|
①口口① |--③-|
36
口③口② |----|
口③④② |--①-|
口口④口 |--②-|
①口口① |③-④-|
37
②口②口 |①---|
①口口口 |--②-|
①口口口
口口口口

口口口口
口口口口
③口③口 |----|
口口口口 |--③-|
38
口①③口 |-①--|
口⑥⑥口 |②--③|
口②口② |--④-|
⑤④④⑤ |⑤-⑥-|
39
①口口① |①---|
口口口② |----|
口③口口 |②--③|
口口口④ |--④-|
40
口③②口 |①---|
口①①口 |----|
③口口② |②---|
口口口口 |③---|
41
③口口② |①--②|
⑥①①⑤ |--③-|
口④④口 |--④-|
口口口口 |⑤-⑥-|
42
口口口口 |①---|
口③②口 |----|
③口口② |②---|
口①①口 |③---|
43
④口口② |①--②|
口⑤③口 |--③-|
⑥①①口 |--④-|
口口口口 |⑤-⑥-|
44
④①②④ |①--②|
②口口① |--③-|
口口口口 |----|
口③③口 |④---|
45
口③③口 |①--②|
口④④口 |--③-|
口①②口 |----|
②口口① |④---|
46
③口③① |①---|
口⑤口① |②---|
②口⑤口 |③--④|
②④口④ |--⑤-|
47
④口②口 |----|
口口口① |①---|
①③口口 |②--③|
口口口口 |--④-|
48
口口口口 |①---|
口②①③ |----|
口口①口 |②---|
②口③口 |③---|
49
②口①口 |①--②|
口⑤④口 |--③-|
③口⑥① |--④-|
口口口口 |⑤-⑥-|
50
口口口口 |①---|
④口②口 |----|
口①口口 |②--③|
口③口口 |--④-|
51
⑤②⑤① |①-②-|
口⑤口⑤ |--③-|
口④口③ |④---|
口口口口 |⑤---|
52
⑦④⑦④ |①-②-|
①⑦④⑤ |③-④-|
口⑥②口 |--⑤-|
③口口口 |⑥-⑦-|
53
④③④③ |--①-|
口口③口 |②-③-|
①口①④ |----|
口②口口 |④---|
54
口③④口 |①---|
④①②① |②---|
③④③口 |③---|
①②口② |④---|
55
②④④③ |①---|
口①②口 |②---|
口口③① |③---|
③②①口 |④---|
56
口口口口 |----|
①口①口 |----|
①①①口 |①---|
①口①口 |----|
57
口口①① |①--②|
口③口① |--③-|
③口口口
口口口②

口口口⑥
口口⑤口
口④口口 |--④-|
口口口口 |⑤-⑥-|
58
①①③口 |①--②|
①口口③ |--③-|
口口口口
②口口口

⑥口口口
口⑤口口
口口④口 |--④-|
口口口口 |⑤-⑥-|
59
口④口① |①--②|
②口①口 |--③-|
口②口③ |--④-|
⑤⑥③口 |⑤-⑥-|
60
④口①⑤ |①--②|
口②口① |--③-|
②口③口 |④---|
口口口③ |⑤---|
61
口口③⑤ |①---|
②④口口 |②---|
口口③口 |③--④|
②①①口 |--⑤-|
62
口③④口 |①--②|
②口①⑤ |--③-|
③口⑥口 |--④-|
口②口口 |⑤-⑥-|
63
口口口② |①---|
口⑤口④ |--②-|
③③口口 |③--④|
口口口① |--⑤-|
64
④④④④ |①--②|
⑤口⑤口 |--③-|
③⑤②口 |④---|
⑤①①① |⑤---|
65
⑤口③⑥ |①--②|
口②口③ |--③-|
口口④① |--④-|
口口①① |⑤-⑥-|
66
口③口口 |①--②|
③口②口 |--③-|
①口口口
①①口口

口口口口
口口口④
口口⑤口 |--④-|
口⑥口口 |⑤-⑥-|
67
①④④② |①--②|
口①②口 |--③-|
④⑤⑤④ |--④-|
③口口③ |--⑤-|
68
②②③③ |①---|
口口口口 |----|
③口口② |②---|
口①①口 |③---|
69
口口口口 |①---|
①①①① |--②-|
口口口口
②②②②

口③③口
口③③口
口③③口 |----|
口口口口 |--③-|
70
②口口① |----|
口口口口 |--①-|
②口口① |----|
口①②口 |②---|
71
口③②口 |①---|
口⑤④口 |②-③-|
⑤①①④ |--④-|
口⑥⑥口 |⑤-⑥-|
72
口口口口 |--①-|
①④④① |②---|
口③③口 |③---|
②口口② |--④-|
73
①①①① |①-②-|
⑤口口③ |③-④-|
②口口⑦ |⑤-⑥-|
⑧⑥④口 |⑦-⑧-|
74
①⑦③⑤ |①-②-|
⑥④⑧② |③-④-|
口①⑤口 |⑤-⑥-|
口口口口 |⑦-⑧-|
75
口⑦③口 |①-②-|
⑥④⑧② |③-④-|
①口口⑤ |⑤-⑥-|
口①⑤口 |⑦-⑧-|
76
①⑥口④ |①-②-|
口⑥⑧⑧ |③-④-|
⑦⑦⑤口 |⑤-⑥-|
③口⑤② |⑦-⑧-|
77
口口②口 |①-②-|
①口口口 |③-④-|
口口口③
④口口口

⑥口口⑤
⑧口口⑦
口口口口 |⑤-⑥-|
口口口口 |⑦-⑧-|
78
⑧⑥口⑧ |①②③④|
口口⑤口 |⑤-⑥-|
口④③口 |⑦-⑧-|
⑦②①⑦ |----|
79
⑤⑤②口 |①--②|
③口④口 |--③-|
⑥口口口 |④--⑤|
⑥①①④ |--⑥-|
80
口口②口 |①--②|
口口口口 |--③-|
口①①口
口口③口

⑤口口口
⑤口口④
口口⑥④ |④--⑤|
⑥口口口 |--⑥-|
81
⑤口口④ |①--②|
口①①④ |--③-|
②⑤口口 |④--⑤|
口⑥⑥③ |--⑥-|
82
⑤①①⑤ |①--②|
口③③口 |--③-|
②⑥⑥② |④--⑤|
④口口④ |--⑥-|
83
口口口口 |----|
口口口口 |----|
口口口口 |----|
口口口口 |----|
84
①①口口 |①--②|
①②口口 |--③-|
口口①口
③口口③

⑥口口口
口口口口
⑤口口④ |--④-|
口口口口 |⑤-⑥-|
85
⑥口①① |①--②|
口⑤②① |--③-|
④①口口 |--④-|
③口口③ |⑤-⑥-|
86
口②口① |①--②|
②⑥③① |--③-|
⑤③口④ |--④-|
口口④口 |⑤-⑥-|
87
口口①口 |①---|
③口口② |----|
口口口口 |②---|
②②③③ |③---|
88
②②②② |①---|
口口口口 |--②-|
①①①①
口口口口

口口口口
口③③口
口③③口 |----|
口③③口 |--③-|
89
口①②口 |----|
②口口① |---①|
口口口口 |----|
②口口① |②---|
90
③口口② |①---|
口⑤④口 |②-③-|
⑤①①④ |--④-|
口⑥⑥口 |⑤-⑥-|
91
口口口口 |--①-|
①④④① |②---|
口③③口 |③---|
②口口② |--④-|
92
①①①① |①-②-|
⑤口⑦③ |③-④-|
②口口口 |⑤-⑥-|
⑧④口⑥ |⑦-⑧-|
93
①口⑤④ |①-②-|
口②口口 |③-④⑤|
口口③口 |----|
口⑥⑥口 |⑥---|
94
②⑧⑥④ |①-②-|
⑤①③⑦ |③-④-|
③⑤⑦① |⑤-⑥-|
口口口口 |⑦-⑧-|
95
⑧⑦⑥⑤ |①-②-|
口③②口 |③-④-|
口口口口 |⑤-⑥-|
④口口① |⑦-⑧-|
96
口口口口 |①-②-|
③④⑤口 |③④⑤-|
口①①口
口②②口

口⑥口⑥
口口口口
口⑦口⑦ |--⑥-|
口口口口 |--⑦-|
97
⑤口⑤口 |--①-|
①④口② |②③④-|
⑥口⑥口 |--⑤-|
口口③口 |--⑥-|
98
口⑤口⑤ |--①-|
口③口① |②③④-|
口⑥口⑥ |--⑤-|
②口④口 |--⑥-|
99
①③③口 |--①-|
口④②④ |--②-|
①口④口 |--③-|
口④②口 |--④-|

accuracy: 100%
最終更新:2022年04月16日 16:51