アットウィキロゴ
Be a Hero!
中島由貴

EXTREME

Level: 10.3
BPM: 190
Notes: 1043

1
口口口口 |----|
口口口口 |----|
口口口口 |----|
口口口口 |----|
2
⑧⑧①① |①-②-|
③⑦⑦⑥ |③④⑤⑥|
口④⑤口 |⑦-⑧-|
⑨⑨②② |--⑨-|
3
⑦⑦①① |--①-|
②⑥⑥⑤ |②③④⑤|
口③④口 |⑥-⑦-|
口口⑧⑧ |--⑧-|
4
⑦⑦①① |--①-|
②⑥⑥⑤ |②③④⑤|
口③④口 |⑥-⑦-|
口口⑧⑧ |--⑧-|
5
口口口④ |--①-|
②⑥⑥口 |②-③-|
口③③⑤ |--④-|
①⑥⑥口 |⑤-⑥-|
6
⑥口口⑤ |----|
②⑥⑤③ |----|
口口口口 |①②③④|
④口口① |⑤-⑥-|
7
⑪⑤①⑩ |①-②③|
⑦⑪⑩⑥ |④-⑤-|
②③④口 |⑥⑦⑧⑨|
⑨口口⑧ |⑩-⑪-|
8
口⑥⑤口 |①②③④|
⑦口口口 |⑤-⑥⑦|
口④③⑤ |--⑧-|
⑧②①⑨ |⑨---|
9
②⑤口口 |①-②③|
⑧⑪④① |④-⑤⑥|
⑥③⑩⑦ |⑦-⑧⑨|
⑫⑨口口 |⑩-⑪⑫|
10
②⑧①⑦ |①--②|
口⑨口⑥ |--③-|
③⑩口⑤ |④⑤⑥⑦|
口⑪口④ |⑧⑨⑩⑪|
11
②口③⑩ |①-②③|
⑥口⑤⑦ |④-⑤-|
④口①⑪ |⑥⑦⑧⑨|
⑧口口⑨ |⑩-⑪-|
12
口⑤⑥口 |①②③④|
口口口⑦ |⑤-⑥⑦|
⑤③④口 |--⑧-|
⑨①②⑧ |⑨---|
13
口口⑤② |①-②③|
①④⑪⑧ |④-⑤⑥|
⑦⑩③⑥ |⑦-⑧⑨|
口口⑨⑫ |⑩-⑪⑫|
14
⑦①⑧② |①--②|
⑥口⑨口 |--③-|
⑤口⑩③ |④⑤⑥⑦|
④口⑪口 |⑧⑨⑩⑪|
15
口⑤⑤② |①---|
③①口① |②---|
口④口② |③--④|
口口口口 |--⑤-|
16
③口口口 |①--②|
口①①口 |--③-|
③⑥⑤④ |--④-|
口②②口 |⑤-⑥-|
17
口①②④ |①--②|
③口⑤③ |--③-|
口口口⑥ |--④-|
②口口① |⑤-⑥-|
18
⑤口④⑥ |①-②-|
口③口口 |③-④-|
口口②口 |⑤-⑥-|
⑦①口⑧ |⑦-⑧-|
19
口②口口 |①---|
口口口口 |②---|
②①①口
口口口口

口口③口
④口口④
口⑤⑤③ |③--④|
口口口口 |--⑤-|
20
⑤口口④ |①--②|
口③②口 |--③-|
口口口⑥ |--④-|
①③②① |⑤-⑥-|
21
口②口口 |①---|
口②口口 |②-③-|
①③④口 |----|
口③口口 |--④-|
22
①③口② |①--②|
口②③① |--③-|
①口口口
②口③口

⑥口⑤口
④口口口
口⑤口⑤ |-④--|
口④口④ |⑤-⑥-|
23
④①口口 |----|
口口口② |①---|
①③③口 |②--③|
口口②口 |--④-|
24
口口口② |①--②|
口①③③ |--③-|
④⑤⑥② |--④-|
口口口口 |⑤-⑥-|
25
④②①口 |①--②|
③⑤口③ |--③-|
⑥口口口 |--④-|
①口口② |⑤-⑥-|
26
⑥④口⑤ |①-②-|
口口③口 |③-④-|
口②口口 |⑤-⑥-|
⑧口①⑦ |⑦-⑧-|
27
口④②口 |①---|
口口⑤② |②---|
③①①口 |③-④-|
口口口口 |--⑤-|
28
口④④② |①--②|
口③口口 |--③-|
⑤⑥②口 |--④-|
③①口① |⑤-⑥-|
29
④④口⑥ |①--②|
口口②口 |--③-|
口口⑤① |④--⑤|
口③口① |--⑥-|
30
⑤④④⑥ |①--②|
口口口② |--③-|
①⑥⑤口 |④--⑤|
①③③口 |--⑥-|
31
口⑤⑤口 |①-②③|
②③④口 |④-⑤-|
口⑧⑦⑥ |--⑥⑦|
①⑨⑨① |⑧-⑨-|
32
④⑦⑦④ |--①②|
①②③口 |③-④-|
口⑥⑤口 |--⑤-|
⑤口口⑥ |⑥-⑦-|
33
⑤口口⑤ |①-②③|
口④③② |④-⑤-|
口口口口
口①①口

口口⑨口
⑨口口口
⑥⑦⑧口 |--⑥⑦|
口⑨口口 |⑧-⑨-|
34
⑥④口② |-①--|
口②口④ |②--③|
口⑤④⑥ |--④-|
②口①③ |⑤-⑥-|
35
口口⑥⑤ |①-②③|
⑨②①⑦ |④-⑤-|
③口⑧口 |--⑥⑦|
口④①口 |⑧-⑨-|
36
口④⑦④ |--①②|
⑥①口⑦ |③-④-|
②⑥⑤口 |--⑤-|
口③口⑤ |⑥-⑦-|
37
⑨⑥⑨⑤ |①-②③|
⑦口②⑨ |④-⑤-|
口⑧口③ |--⑥⑦|
①口④口 |⑧-⑨-|
38
口⑤⑥② |-①--|
⑤口②⑥ |②--③|
②口口口 |--④-|
①④④③ |⑤-⑥-|
39
②口口② |①---|
口④④口 |----|
③①①③ |②--③|
口口口口 |--④-|
40
②③口口 |①---|
口口口口 |----|
口①①口 |②---|
口口③② |③---|
41
口口①⑤ |①--②|
⑥②⑤③ |--③-|
③⑥②口 |--④-|
④①口④ |⑤-⑥-|
42
②口②口 |①---|
口口口③ |----|
口口口① |②---|
口口①③ |③---|
43
口④口口 |①--②|
口②⑤口 |--③-|
①③①⑥ |--④-|
口口口口 |⑤-⑥-|
44
①口①口 |①--②|
④②口口 |--③-|
①口口口 |----|
口③③② |④---|
45
口①口① |①--②|
口④②口 |--③-|
口口④① |----|
②③③口 |④---|
46
①口口① |①---|
口⑤④③ |②---|
②口口② |③--④|
口⑤④③ |--⑤-|
47
④①①③ |--①-|
③⑤⑤④ |②---|
口②②口 |③--④|
口口口口 |--⑤-|
48
口②口③ |①---|
口口口口 |----|
口③口② |②---|
口①①口 |③---|
49
②口②口 |①--②|
口口①① |--③-|
口口口口
③口③口

口④口④
口⑥⑥口
口口口口 |--④-|
口⑤口⑤ |⑤-⑥-|
50
口口口口 |①---|
口口口口 |----|
口①①口
口口口口

口③口口
③④口口
口口④② |②--③|
口口②口 |--④-|
51
⑤口①① |①-②-|
口⑤口② |--③-|
③③⑤口 |④---|
④口口⑤ |⑤---|
52
口④④④ |①-②-|
①口①口 |③-④-|
口口口②
口口③口

口口口口
⑦⑤口口
⑦口⑥口 |--⑤-|
⑦口口口 |⑥-⑦-|
53
①④口口 |--①-|
口口口③ |②-③-|
口口口③ |----|
④②口③ |④---|
54
口④④① |①---|
③②③② |②---|
④口口④ |③---|
口③①② |④---|
55
④④④④ |①---|
③②口③ |②---|
口①①口 |③---|
②口③② |④---|
56
口⑥⑥口 |--①②|
⑤①口④ |③---|
口口②口 |④--⑤|
⑤③口④ |--⑥-|
57
①口口④ |①--②|
⑥③①③ |--③-|
②③③③ |--④-|
⑤③②③ |⑤-⑥-|
58
①口口口 |①--②|
口③①③ |--③-|
②③③③
口③②③

口④口口
⑤口⑥口
口口口口 |--④-|
口口口口 |⑤-⑥-|
59
口⑥①① |①--②|
④口⑤⑤ |--③-|
②⑥口口 |--④-|
②口③③ |⑤-⑥-|
60
口口①② |①--②|
④⑤⑥口 |--③-|
③口①② |④⑤⑥-|
③⑨⑧⑦ |⑦⑧⑨-|
61
②①①② |①---|
口③口④ |②---|
⑤①①口 |③--④|
③口④口 |--⑤-|
62
口④口④ |①--②|
②⑤②口 |--③-|
⑥口口① |--④-|
口③口③ |⑤-⑥-|
63
⑤口①④ |①--②|
②口④① |--③-|
⑥④口口 |④--⑤|
口③口口 |--⑥-|
64
口④①④ |①--②|
②①④① |--③-|
口④①④ |④---|
口⑤③⑤ |⑤---|
65
⑤③②③ |①--②|
②③③③ |--③-|
⑥③①③ |--④-|
①口口④ |⑤-⑥-|
66
口③②③ |①--②|
②③③③ |--③-|
口③①③
①口口口

口口口口
口口口口
⑤口⑥口 |--④-|
口④口口 |⑤-⑥-|
67
②口③③ |①--②|
②④④口 |--③-|
⑤口口⑤ |--④-|
口口①① |--⑤-|
68
口口口口 |①---|
②口②③ |----|
口口口③ |②---|
①②口① |③---|
69
①①①① |①-②③|
口③口口 |④-⑤-|
②口④口
⑤⑤⑤⑤

⑩⑩⑩⑩
⑥口⑧口
口⑦口⑨ |⑥⑦⑧⑨|
口口口口 |--⑩-|
70
口口口口 |----|
口①口口 |--①-|
口口①口 |----|
②口口② |②---|
71
①⑤④① |①--②|
口③②口 |--③-|
④⑥⑥⑤ |--④-|
口②③口 |⑤-⑥-|
72
④⑤⑤③ |--①-|
①口口① |②---|
口口口口 |③--④|
③②②④ |--⑤-|
73
口口口口 |①-②③|
④③②⑤ |④-⑤-|
①①①①
口口口口

⑨口⑨口
口口口口
⑩口⑩口 |⑥⑦⑧-|
口⑥⑦⑧ |⑨-⑩-|
74
⑫②⑫① |①②③④|
⑦⑥⑧⑤ |⑤-⑥-|
⑪④口③ |⑦⑧⑨⑩|
⑨⑥⑩口 |⑪-⑫-|
75
口⑨口④ |①②③④|
⑪⑧口③ |⑤-⑥⑦|
⑩⑦⑤② |⑧⑨⑩-|
⑫⑥口① |⑪-⑫-|
76
⑩⑨⑧⑦ |①②③④|
⑫⑪⑥⑤ |⑤⑥⑦⑧|
⑭⑬④③ |⑨⑩⑪⑫|
⑯⑮②① |⑬⑭⑮⑯|
77
⑥④口口 |①-②-|
口⑦⑤③ |③-④⑤|
口口口② |-⑥⑦-|
口⑨⑧① |⑧-⑨-|
78
⑧⑦⑥⑤ |①②③④|
⑩口口⑨ |⑤⑥⑦⑧|
④③②① |⑨-⑩-|
⑩口口⑨ |----|
79
⑤⑤②口 |①--②|
口口④口 |--③-|
⑥口口③ |④--⑤|
⑥①①④ |--⑥-|
80
口口②口 |①--②|
口口口口 |--③-|
口①①口
口③口口

⑤口口口
⑤口口④
口口⑥④ |④--⑤|
⑥口口口 |--⑥-|
81
⑤口口④ |①--②|
口①①④ |--③-|
②⑤口口 |④--⑤|
口⑥⑥③ |--⑥-|
82
⑤①①口 |①--②|
③口口④ |--③-|
③口⑤② |④--⑤|
②⑥⑥④ |--⑥-|
83
⑫⑥口③ |--①②|
⑧②①⑦ |③④⑤⑥|
⑩④⑨⑤ |⑦⑧⑨⑩|
口⑭⑬⑪ |⑪⑫⑬⑭|
84
⑤③②③ |①--②|
口③③③ |--③-|
⑥③口③ |--④-|
①口口④ |⑤-⑥-|
85
口③②③ |①--②|
②③③③ |--③-|
口③①③
①口口口

口口口口
口口口口
⑤口⑥口 |--④-|
口④口口 |⑤-⑥-|
86
②⑤③③ |①--②|
②⑤④④ |--③-|
⑥⑥口口 |--④-|
口口①① |⑤-⑥-|
87
口口口口 |①---|
②口②③ |----|
口口①③ |②---|
口②①口 |③---|
88
①①①① |①-②③|
口③口口 |④-⑤-|
②口④口
⑤⑤⑤⑤

⑩⑩⑩⑩
⑥口⑧口
口⑦口⑨ |⑥⑦⑧⑨|
口口口口 |--⑩-|
89
口口口口 |----|
口①口口 |--①-|
口口①口 |----|
②口口② |②---|
90
①⑤④① |①--②|
口③②口 |--③-|
④⑥⑥⑤ |--④-|
口②③口 |⑤-⑥-|
91
口⑤口⑤ |--①-|
①③③① |②---|
口口口口 |③--④|
④②②④ |--⑤-|
92
②口③⑩ |①-②③|
⑥口⑤⑦ |④-⑤-|
④①①⑪ |⑥⑦⑧⑨|
⑧口口⑨ |⑩-⑪-|
93
口⑤⑥口 |①②③④|
口口口⑦ |⑤-⑥⑦|
⑤③④口 |--⑧-|
⑨①②⑧ |⑨---|
94
口口⑤② |①-②③|
①④⑪⑧ |④-⑤⑥|
⑦⑩③⑥ |⑦-⑧⑨|
口口⑨⑫ |⑩-⑪⑫|
95
⑦①⑧② |①--②|
⑥口⑨口 |--③-|
⑤口⑩③ |④⑤⑥⑦|
④口⑪口 |⑧⑨⑩⑪|
96
口③口④ |①-②-|
口①口① |③④⑤⑥|
口⑤口⑥
口②口②

⑧口⑧口
⑦⑨口⑨
口口口口 |⑦-⑧-|
口口口口 |--⑨-|
97
⑥②口③ |--①-|
⑧口⑧口 |②③④⑤|
④口⑤口 |⑥-⑦-|
①⑦①⑦ |--⑧-|
98
⑥⑥⑧⑧ |--①-|
口③口⑤ |②③④⑤|
②口④口 |⑥-⑦-|
①⑦①⑦ |--⑧-|
99
⑤⑤口口 |--①②|
①⑦③⑦ |③④⑤-|
口②⑦④ |--⑥-|
口⑦⑥⑥ |--⑦-|

accuracy: 100%
最終更新:2022年04月16日 17:19