アットウィキロゴ
恋のパズルマジック
ときめきアイドル project Rhythmixxx

BASIC

Level: 2
BPM: 140
Notes: 147

1
口口口口 |----|
口口口口 |----|
口口口口 |----|
口口口口 |----|
2
口口①口 |①---|
口口口口 |----|
口口口口 |----|
口口口口 |----|
3
口①口口 |①---|
口口口口 |----|
口口口口 |----|
口口口口 |----|
4
口口口口 |①---|
口口①口 |----|
口口口口 |----|
口口口口 |----|
5
口口口口 |①---|
口①口口 |----|
口口口口 |----|
口口口口 |----|
6
口口口① |①---|
口口口口 |----|
口口口口 |----|
口口口口 |----|
7
①口口口 |①---|
口口口口 |----|
口口口口 |----|
口口口口 |----|
8
口口口口 |①---|
②口口① |----|
口口口口 |②---|
口口口口 |----|
9
口口①口 |①---|
口②口口 |②---|
口口③口 |③---|
口④口口 |④---|
10
口口口口 |①---|
口②①口 |----|
口口口口 |②---|
口口口口 |----|
11
口口口口 |①---|
口口口口 |----|
口②①口 |②---|
口口口口 |----|
12
口口口口 |①---|
口口口口 |----|
口口口口 |②---|
口②①口 |----|
13
口口口口 |①---|
口口口口 |②---|
口③②① |③---|
口口口口 |----|
14
口口口口 |①---|
口①②口 |----|
口口口口 |②---|
口口口口 |----|
15
口口口口 |①---|
口口口口 |----|
口①②口 |②---|
口口口口 |----|
16
口口口口 |①---|
口口口口 |----|
口口口口 |②---|
口①②口 |----|
17
口口口口 |①---|
口口口口 |②---|
①②③口 |③---|
口口口口 |----|
18
②口口① |①---|
口口口口 |----|
口口口口 |②---|
口口口口 |----|
19
口口口口 |①---|
口②①口 |----|
口口口口 |②---|
口口口口 |----|
20
口口口口 |①---|
口口口口 |----|
②口口① |②---|
口口口口 |----|
21
口口①口 |①---|
口②口口 |②---|
口口③口 |③---|
口口口口 |----|
22
①口口② |①---|
口口口口 |----|
口口口口 |②---|
口口口口 |----|
23
口口口口 |①---|
口①②口 |----|
口口口口 |②---|
口口口口 |----|
24
口口口口 |①---|
口口口口 |----|
①口口② |②---|
口口口口 |----|
25
口①口口 |①---|
口口②口 |②---|
口③口口 |③---|
口口④口 |④---|
26
口口口口 |①---|
口①①口 |----|
口口口口 |----|
口口口口 |----|
27
口①①口 |①---|
口口口口 |----|
口口口口 |----|
口口口口 |----|
28
口口口口 |①---|
口①①口 |----|
口口口口 |----|
口口口口 |----|
29
口口口口 |①---|
口口口口 |----|
口①①口 |----|
口口口口 |----|
30
口口口口 |①---|
口口②① |----|
口口口口 |②---|
口口口口 |----|
31
口①口口 |①---|
口②口口 |②---|
口③口口 |③---|
口④口口 |④---|
32
口口口口 |①---|
①②口口 |----|
口口口口 |②---|
口口口口 |----|
33
口口①口 |①---|
口口②口 |②---|
口口③口 |③---|
口口④口 |④---|
34
口口口口 |①---|
口口②① |----|
口口口口 |②---|
口口口口 |----|
35
口①口口 |①---|
口②口口 |②---|
口③口口 |③---|
口④口口 |④---|
36
口口口口 |①---|
①②口口 |----|
口口口口 |②---|
口口口口 |----|
37
口口①口 |①---|
口口②口 |②---|
口口③口 |③---|
口口④口 |④---|
38
口①口口 |①---|
口口口口 |----|
口②口口 |②---|
口口口口 |----|
39
口口口口 |①---|
①②③④ |②---|
口口口口 |③---|
口口口口 |④---|
40
口口①口 |①---|
口口口口 |----|
口口②口 |②---|
口口口口 |----|
41
口①口口 |①---|
口口②口 |②---|
口③口口 |③---|
口口口口 |----|
42
口口①口 |①---|
口口口口 |----|
口口②口 |②---|
口口口口 |----|
43
口口口口 |①---|
④③②① |②---|
口口口口 |③---|
口口口口 |④---|
44
口①口口 |①---|
口口口口 |----|
口②口口 |②---|
口口口口 |----|
45
口口①口 |①---|
口②口口 |②---|
口口③口 |③---|
口口口口 |----|
46
口口口口 |①---|
口①①口 |----|
口②②口 |②---|
口口口口 |----|
47
口口口口 |①---|
口①①口 |----|
口②②口 |②---|
口口口口 |----|
48
口口口口 |①---|
②口口① |----|
口口口口 |②---|
口口口口 |----|
49
口口口口 |①---|
口口口口 |----|
②口口① |②---|
口口口口 |----|
50
口口口口 |①---|
口①①口 |----|
口②②口 |②---|
口口口口 |----|
51
口口口口 |①---|
②口口① |----|
口口口口 |②---|
口口口口 |----|
52
口口口口 |①---|
口口口口 |----|
②口口① |②---|
口口口口 |----|
53
口口口口 |①---|
口①①口 |----|
口②②口 |②---|
口口口口 |----|
54
口口①口 |①---|
口②口口 |②---|
口口③口 |③---|
口④口口 |④---|
55
口口口口 |①---|
口口口口 |----|
①口口① |----|
口口口口 |----|
56
口口口口 |①---|
①口口① |----|
口口口口 |----|
口口口口 |----|
57
①口口① |①---|
②口口② |----|
口口口口 |②---|
口口口口 |----|
58
口①①口 |①---|
口②②口 |②---|
口③③口 |③---|
口④④口 |④---|

accuracy: 99.5%
最終更新:2023年06月14日 00:37