アットウィキロゴ
恋のパズルマジック
ときめきアイドル project Rhythmixxx

ADVANCED

Level: 5
BPM: 140
Notes: 329

1
口口口口 |----|
口口口口 |----|
口口口口 |----|
口口口口 |----|
2
口①口口 |①---|
②口口口 |②---|
③口口口 |③---|
口④口口 |④---|
3
口口①口 |①---|
口口口① |----|
口口口② |②---|
口口②口 |----|
4
①口口口 |①---|
口②口口 |②---|
口③口口 |③---|
④口口口 |④---|
5
口口口① |①---|
口口①口 |----|
口口②口 |②---|
口口口② |----|
6
口口①口 |①---|
口口口② |②---|
口口口③ |③---|
口口④口 |④---|
7
口①口口 |①---|
①口口口 |----|
②口口口 |②---|
口②口口 |----|
8
口口口口 |①---|
口②①口 |②---|
口④③口 |③---|
口口口口 |④---|
9
口口口口 |①---|
③⑤⑤③ |②---|
④口口④ |③-④-|
口②①口 |⑤---|
10
口③①口 |①---|
口口口口 |②---|
口口口口 |③---|
口②④口 |④---|
11
③口口① |①---|
口口口口 |②---|
口口口口 |③---|
②口口④ |④---|
12
口③①口 |①---|
口口口口 |②---|
口口口口 |③---|
口②④口 |④---|
13
③口口① |①---|
口④口口 |②---|
口口⑤口 |③-④-|
②口口口 |⑤---|
14
口①③口 |①---|
口口口口 |②---|
口口口口 |③---|
口④②口 |④---|
15
①口口③ |①---|
口口口口 |②---|
口口口口 |③---|
④口口② |④---|
16
口①③口 |①---|
口口口口 |②---|
口口口口 |③---|
口④②口 |④---|
17
①口口③ |①---|
口口④口 |②---|
口⑤口口 |③-④-|
口口口② |⑤---|
18
①口②口 |①---|
①③②④ |②---|
口③口④ |③---|
口口口口 |④---|
19
口①③口 |①---|
口口口口 |②---|
口口口口 |③---|
口④②口 |④---|
20
口②口① |①---|
④②③① |②---|
④口③口 |③---|
口口口口 |④---|
21
③口①口 |①---|
口④口口 |②---|
口口⑤口 |③-④-|
口②口口 |⑤---|
22
③③①① |①---|
口口口口 |②---|
口口口口 |③---|
④④②② |④---|
23
口③①口 |①---|
口口口口 |②---|
②口口④ |③---|
口口口口 |④---|
24
口口口口 |①---|
口③①口 |②---|
口口口口 |③---|
口②④口 |④---|
25
口①②口 |①---|
①④④② |②---|
口④④口 |③---|
口③③口 |④---|
26
口口口口 |①---|
②口口② |----|
①口口① |②---|
口口口口 |----|
27
①口口① |①---|
②口口② |----|
口口口口 |②---|
口口口口 |----|
28
口口口口 |①---|
②口口② |----|
①口口① |②---|
口口口口 |----|
29
①口口① |①---|
口②②口 |②---|
口③③口 |③---|
口④④口 |④---|
30
①①②② |①---|
①口口② |②---|
④口口③ |③---|
④④③③ |④---|
31
①④④口 |①---|
口口②口 |②-③-|
口③口口 |----|
口口口口 |④---|
32
口口口口 |①---|
口④④① |②-③-|
②口口① |----|
口③口口 |④---|
33
口口口口 |①--②|
口口口① |--③-|
口②口口 |----|
口④④③ |④---|
34
口①②口 |①---|
①①②② |②---|
④④③③ |③---|
口④③口 |④---|
35
①④④口 |①---|
口口②口 |②-③-|
口③口口 |----|
口口口口 |④---|
36
口④④口 |①--②|
①口口口 |--③-|
口口②口 |----|
③口口口 |④---|
37
口口口口 |①--②|
口口口① |--③-|
口②口口 |----|
口④④③ |④---|
38
①①②② |①---|
①口口② |②---|
④口口③ |③---|
④④③③ |④---|
39
①④④口 |①---|
口口②口 |②-③-|
口③口口 |----|
口口口口 |④---|
40
口口口口 |①---|
口④④① |②-③-|
②口口① |----|
口③口口 |④---|
41
口口口口 |①--②|
口口口① |--③-|
口②口口 |----|
口④④③ |④---|
42
口①②口 |①---|
①①②② |②---|
④④③③ |③---|
口④③口 |④---|
43
①④④口 |①---|
口口②口 |②-③-|
口③口口 |----|
口口口口 |④---|
44
口④④口 |①--②|
①口口口 |--③-|
口口②口 |----|
③口口口 |④---|
45
口口口口 |①--②|
口④④① |--③-|
口②口口 |----|
口口口③ |④---|
46
口口口口 |①---|
①口口③ |②---|
口口口口 |③---|
口②④口 |④---|
47
口口口口 |①---|
口①③口 |②---|
口口口口 |③---|
②口口④ |④---|
48
①口口③ |①---|
口口口口 |②---|
口②④口 |③---|
口口口口 |④---|
49
口①③口 |①---|
口口口口 |②---|
②口口④ |③---|
口口口口 |④---|
50
①③③① |①---|
口口口口 |②---|
口④④口 |③---|
②②②② |④---|
51
③口口① |①---|
口口口口 |②---|
口口口口 |③---|
口②④口 |④---|
52
口③③口 |①---|
①口口① |②---|
②口口② |③---|
口④④口 |④---|
53
①口口② |①--②|
①⑤⑤② |--③-|
③⑤⑤④ |-④--|
③口口④ |⑤---|
54
口①②口 |①---|
口③④口 |②---|
①⑤⑥② |③-④-⑤-|
口口口口 |⑥---|
55
①口口① |①---|
口口口口 |----|
口口口口 |②---|
②口口② |----|
56
口口口口 |①---|
①口口① |----|
②口口② |②---|
口口口口 |----|
57
口口口口 |①---|
口②①口 |②---|
口④③口 |③---|
口口口口 |④---|
58
口口口口 |①---|
③⑤⑤③ |②---|
④口口④ |③-④-|
口②①口 |⑤---|

accuracy: 99.5%
最終更新:2023年06月14日 00:45