アットウィキロゴ
恋のパズルマジック
ときめきアイドル project Rhythmixxx

EXTREME

Level: 8
BPM: 140
Notes: 591

1
口口口口 |----|
口口口口 |----|
口口口口 |----|
口口口口 |----|
2
⑦⑦口① |①-②-|
口②口口 |③-④-|
⑧⑧⑥③ |⑤-⑥-|
口④口⑤ |⑦-⑧-|
3
口口①口 |①-②-|
②口口口 |③-④-|
口口③口
④口口口

口口口口
⑦⑧⑨⑩
口⑥口口 |⑤-⑥-|
口口⑤口 |⑦⑧⑨⑩|
4
口①口② |①-②-|
口口口口 |③-④-|
口③口④
口口口口

⑦⑦口口
口⑥口口
⑧⑧⑤口 |⑤-⑥-|
口口口口 |⑦-⑧-|
5
口口口口 |①-②-|
②口①口 |③-④-|
口口口口
④口③口

口口口口
⑩⑨⑧⑦
口口⑥口 |⑤-⑥-|
口⑤口口 |⑦⑧⑨⑩|
6
口②口① |①-②-|
口口口口 |③-④-|
口④口③
口口口口

⑦⑦⑧⑧
口口口⑥
口口⑤口 |⑤-⑥-|
口口口口 |⑦-⑧-|
7
口口口口 |①-②-|
①口②口 |③-④-|
口口口口
③口④口

口口口口
⑦⑧⑨⑩
⑥口口口 |⑤-⑥-|
口⑤口口 |⑦⑧⑨⑩|
8
口①②口 |①-②-|
口⑤⑥口 |③-④-|
口⑦⑧口 |⑤-⑥-|
口③④口 |⑦-⑧-|
9
①⑮⑮② |①②③④|
⑨⑩⑪⑫ |⑤⑥⑦⑧|
⑤⑬⑭⑥ |⑨⑩⑪⑫⑬⑭|
③⑦⑧④ |⑮---|
10
口④口① |①---|
⑦③⑤口 |②-③-|
②⑥口① |④-⑤-|
口口口口 |⑥-⑦-|
11
⑤②①⑤ |--①-|
口口口口 |②-③-|
②④④① |--④-|
口③③口 |⑤---|
12
口口②口 |①---|
⑤③口④ |②-③-|
⑤口口④ |--④-|
①⑤④① |--⑤-|
13
④⑤⑥① |--①-|
口口②口 |②-③-|
口③⑦⑦ |④⑤⑥-|
口口口口 |⑦---|
14
口口口口 |①---|
①口口② |②-③-|
口口③口
①口口口

⑥口⑦口
口⑥⑤⑦
④⑤口口 |④-⑤-|
口④口口 |⑥-⑦-|
15
⑤②口⑤ |--①-|
②④④口 |②-③-|
③③口口 |--④-|
口口①① |⑤---|
16
口②口口 |①---|
④口③⑤ |②-③-|
④口口⑤ |--④-|
①④⑤① |--⑤-|
17
①⑥⑤④ |--①-|
口②口口 |②-③-|
⑦⑦③口 |④⑤⑥-|
口口口口 |⑦---|
18
口口口口 |①---|
⑤口⑥① |②-③-|
③⑦④口 |④-⑤-|
口②口① |⑥-⑦-|
19
口①①口 |----|
口口⑤口 |①-②-|
口④口口 |--③-|
③②②口 |④-⑤-|
20
②②⑤① |①---|
④口口口 |②-③-|
口⑤③③ |--④-|
口④口口 |--⑤-|
21
口口⑤⑤ |--①-|
口③②① |②-③-|
口口口口 |④---|
口口④④ |⑤---|
22
①口口④ |①---|
①③⑤口 |②-③-|
①⑥口口 |④-⑤-|
⑦②②② |⑥-⑦-|
23
口①①口 |----|
口口口口 |①-②-|
口口口口
口②②口

③⑤⑤④
口口口口
口③④口 |--③-|
口口口口 |④-⑤-|
24
口④⑤口 |①---|
④⑤④⑤ |②-③-|
②④⑤② |--④-|
③①①③ |--⑤-|
25
①③④① |--①-|
⑤口口⑤ |②-③-|
②口口② |④-⑤-|
口⑥⑥口 |⑥---|
26
①口②口 |①-②-|
③口口④ |③-④-|
⑤口⑥口 |⑤-⑥-|
⑦口口⑧ |⑦-⑧-|
27
①口口② |①-②-|
③口④口 |③-④-|
⑤口口⑥ |⑤-⑥-|
⑦口⑧口 |⑦-⑧-|
28
①口口① |①-②-|
④②口③ |③-④-|
④⑥口⑤ |⑤-⑥-|
⑧口口⑦ |⑦-⑧-|
29
①②口① |①-②-|
⑧③③⑦ |③-④-|
⑥④④⑤ |⑤⑥⑦⑧|
口⑨⑨口 |⑨---|
30
口①①② |①---|
口①②② |②-③-|
口①③②
口③③③

口口口口
口口⑥口
口⑤口口 |--④-|
④口口口 |⑤-⑥-|
31
②②口① |①---|
②③口口 |②-③-|
③③口口
口口口口

口口④④
口口⑤④
口口⑤⑤ |--④-|
口口口口 |⑤---|
32
口①②② |①---|
口④⑤⑥ |②-③-|
①口③③ |--④-|
口口口口 |⑤-⑥-|
33
口①①口 |①--②|
口口口口 |--③-|
③口口③
口②②口

口⑤口口
⑤口口④
口口口口 |④---|
口口口口 |⑤---|
34
口口①① |①---|
口口①口 |②-③-|
②③①口
②口口口

口口口口
口⑥口口
口口⑤口 |--④-|
口口口④ |⑤-⑥-|
35
①口②② |①---|
口口③② |②-③-|
口口③③
口口口口

④④口口
④⑤口口
⑤⑤口口 |--④-|
口口口口 |⑤---|
36
③③②② |①--②|
③口口② |--③-|
⑥⑤④① |--④-|
口口①① |⑤-⑥-|
37
口②口口 |①--②|
②口口① |--③-|
口③③口
口口①口

④口口⑤
口口口⑤
口口口口 |④---|
口口口口 |⑤---|
38
②①①口 |①---|
②②①口 |②-③-|
②③①口
③③③口

口口口口
口⑥口口
口口⑤口 |--④-|
口口口④ |⑤-⑥-|
39
①口②② |①---|
口口③② |②-③-|
口口③③
口口口口

④④口口
④⑤口口
⑤⑤口口 |--④-|
口口口口 |⑤---|
40
②②①口 |①---|
⑥⑤④口 |②-③-|
③③口① |--④-|
口口口口 |⑤-⑥-|
41
口①①口 |①--②|
口口口口 |--③-|
③口口③
口②②口

口口⑤口
④口口⑤
口口口口 |④---|
口口口口 |⑤---|
42
①①口口 |①---|
口①口口 |②-③-|
口①③②
口口口②

口口口口
口口⑥口
口⑤口口 |--④-|
④口口口 |⑤-⑥-|
43
②②口① |①---|
②③口口 |②-③-|
③③口口
口口口口

口口④④
口口口口
口口口口 |--④-|
口口⑤⑤ |⑤---|
44
②②③③ |①--②|
②口口③ |--③-|
①④⑤⑥ |--④-|
①①口口 |⑤-⑥-|
45
④口②④ |①--②|
①④④② |--③-|
口③③口 |----|
口①口口 |④---|
46
口①⑦口 |①---|
①⑥⑤④ |②-③-|
口口⑧口 |④⑤⑥-|
口②③口 |⑦-⑧-|
47
口①口口 |①--②|
①口口② |--③-|
③口口②
口③口口

口口口④
口⑤口口
口口口⑥ |④--⑤|
口口口口 |--⑥-|
48
口⑦①口 |①---|
④⑤⑥① |②-③-|
口⑧口口 |④⑤⑥-|
口③②口 |⑦-⑧-|
49
②口①口 |①--②|
口②口① |--③-|
口口③口
口口口③

口⑤⑤口
口⑥⑥口
④口口口 |-④--|
口④口口 |⑤-⑥-|
50
①口⑥① |①---|
口⑤④③ |②---|
口口⑦口 |③④⑤-|
②②②② |⑥-⑦-|
51
口①口口 |①--②|
①口口② |--③-|
③口口②
口③口口

口口口④
口⑤口口
口口口⑥ |④--⑤|
口口口口 |--⑥-|
52
口⑦①口 |①---|
④⑤⑥① |②-③-|
口⑧口口 |④⑤⑥-|
口③②口 |⑦-⑧-|
53
①口①口 |①--②|
③②口② |--③-|
③口口①
②口③口

口⑤⑤④
口口④口
口④口口 |-④--|
口口口口 |⑤---|
54
口口口口 |①---|
⑥①⑦① |②--③④⑤|
③④⑤口 |⑥-⑦-⑧-|
⑧②⑨② |⑨---|
55
⑦⑦口① |①-②-|
口②口口 |③-④-|
⑧⑧⑥③ |⑤-⑥-|
口④口⑤ |⑦-⑧-|
56
⑦口①⑦ |①-②-|
②口口口 |③-④-|
⑧⑥③⑧ |⑤-⑥-|
④口⑤口 |⑦-⑧-|
57
口口口口 |①-②-|
①⑤⑥② |③-④-|
口⑦⑧口 |⑤-⑥-|
口③④口 |⑦-⑧-|
58
①⑮⑮② |①②③④|
⑨⑩⑪⑫ |⑤⑥⑦⑧|
⑤⑬⑭⑥ |⑨⑩⑪⑫⑬⑭|
③⑦⑧④ |⑮---|

accuracy: 99.5%
最終更新:2023年06月14日 00:56