アットウィキロゴ
Strawberry Chu♡Chu♡
ときめきアイドル project クッキーパラダイス

BASIC

Level: 4
BPM: 137
Notes: 304

1
口口口口 |----|
口口口口 |----|
口口口口 |----|
口口口口 |----|
2
口口口口 |①---|
口口口口 |----|
口口口口 |----|
口①①口 |----|
3
口口口口 |①---|
②口口② |----|
①口口① |②---|
口口口口 |----|
4
口口口口 |①---|
④口口② |②---|
口口口口 |③---|
③口口① |④---|
5
④口口② |①---|
口口口口 |②---|
③口口① |③---|
口口口口 |④---|
6
口口口口 |①---|
④口口② |②---|
口口口口 |③---|
③口口① |④---|
7
④口口② |①---|
口口口口 |②---|
③口口① |③---|
口口口口 |④---|
8
口口口口 |①---|
④口口② |②---|
口口口口 |③---|
③口口① |④---|
9
④口口② |①---|
口口口口 |②---|
③口口① |③---|
口口口口 |④---|
10
口口口口 |①---|
口④②口 |②---|
口口口口 |③---|
口③①口 |④---|
11
②②①① |①---|
口口口口 |----|
口口口口 |②---|
口口口口 |----|
12
③口口③ |①---|
口②②口 |②---|
口①①口 |③---|
口口口口 |----|
13
口口口口 |----|
口口口口 |----|
口口口口 |----|
口口口口 |----|
14
口口口口 |①---|
口③③口 |②---|
②口口② |③---|
①口口① |----|
15
口口口口 |----|
口口口口 |----|
口口口口 |----|
口口口口 |----|
16
③口口③ |①---|
口②②口 |②---|
口①①口 |③---|
口口口口 |----|
17
口口口口 |----|
口口口口 |----|
口口口口 |----|
口口口口 |----|
18
口口口口 |①---|
口③③口 |②---|
②口口② |③---|
①口口① |----|
19
口口口口 |----|
口口口口 |----|
口口口口 |----|
口口口口 |----|
20
口口口口 |①---|
②①③④ |②---|
④③①② |③---|
口口口口 |④---|
21
①口口① |①---|
口口口口 |----|
口口口口 |----|
口口口口 |----|
22
口口口④ |①---|
口口③口 |②---|
口口口② |③---|
口口①口 |④---|
23
④口口口 |①---|
口③口口 |②---|
②口口口 |③---|
口①口口 |④---|
24
口口①口 |①---|
口②口口 |②---|
口口③口 |③---|
口④口口 |④---|
25
口口口口 |①---|
②②①① |----|
口口口口 |②---|
口口口口 |----|
26
口口口④ |①---|
口口③口 |②---|
口口口② |③---|
口口①口 |④---|
27
④口口口 |①---|
口③口口 |②---|
②口口口 |③---|
口①口口 |④---|
28
口口口口 |①---|
②口口② |----|
口①①口 |②---|
口口口口 |----|
29
口③③口 |①---|
口②②口 |②---|
口①①口 |③---|
口口口口 |----|
30
口口口口 |①---|
③④④③ |②---|
②口口② |③---|
①口口① |④---|
31
③③③③ |①---|
口口口口 |②---|
口②②口 |③---|
口①①口 |----|
32
口口口口 |①---|
④③③④ |②---|
口②②口 |③---|
口①①口 |④---|
33
③③③③ |①---|
口口口口 |②---|
②口口② |③---|
①口口① |----|
34
口④④口 |①---|
口③③口 |②---|
口②②口 |③---|
口①①口 |④---|
35
③③③③ |①---|
②口口② |②---|
①口口① |③---|
口口口口 |----|
36
口口口口 |①---|
②口口② |----|
口口口口 |②---|
口①①口 |----|
37
③口口③ |①---|
口口口口 |②---|
口②②口 |③---|
口①①口 |----|
38
口口口口 |①---|
④口口② |②---|
口口口口 |③---|
③口口① |④---|
39
④口口② |①---|
口口口口 |②---|
③口口① |③---|
口口口口 |④---|
40
口口口口 |①---|
④口口② |②---|
口口口口 |③---|
③口口① |④---|
41
④口口② |①---|
口口口口 |②---|
③口口① |③---|
口口口口 |④---|
42
口口口口 |①---|
④口口② |②---|
口口口口 |③---|
③口口① |④---|
43
④口口② |①---|
口口口口 |②---|
③口口① |③---|
口口口口 |④---|
44
口口口口 |①---|
口④②口 |②---|
口口口口 |③---|
口③①口 |④---|
45
②②①① |①---|
口口口口 |----|
口口口口 |②---|
口口口口 |----|
46
口口口④ |①---|
口口③口 |②---|
口口口② |③---|
口口①口 |④---|
47
④口口口 |①---|
口③口口 |②---|
②口口口 |③---|
口①口口 |④---|
48
口口①口 |①---|
口②口口 |②---|
口口③口 |③---|
口④口口 |④---|
49
口口口口 |①---|
②②①① |----|
口口口口 |②---|
口口口口 |----|
50
口口口④ |①---|
口口③口 |②---|
口口口② |③---|
口口①口 |④---|
51
④口口口 |①---|
口③口口 |②---|
②口口口 |③---|
口①口口 |④---|
52
口口口口 |①---|
②口口② |----|
口①①口 |②---|
口口口口 |----|
53
口③③口 |①---|
口②②口 |②---|
口①①口 |③---|
口口口口 |----|
54
口口口口 |①---|
③④④③ |②---|
②口口② |③---|
①口口① |④---|
55
③③③③ |①---|
口口口口 |②---|
口②②口 |③---|
口①①口 |----|
56
口口口口 |①---|
④③③④ |②---|
口②②口 |③---|
口①①口 |④---|
57
③③③③ |①---|
口口口口 |②---|
②口口② |③---|
①口口① |----|
58
口④④口 |①---|
口③③口 |②---|
口②②口 |③---|
口①①口 |④---|
59
③③③③ |①---|
②口口② |②---|
①口口① |③---|
口口口口 |----|
60
口口口口 |①---|
②口口② |----|
口口口口 |②---|
口①①口 |----|
61
③口口③ |①---|
口口口口 |②---|
口②②口 |③---|
口①①口 |----|
62
口口口口 |①---|
②口口② |----|
②①①② |②---|
口①①口 |----|
63
③口口③ |①---|
③口口③ |②---|
口②②口 |③---|
口①①口 |----|

accuracy: 99.5%
最終更新:2022年11月09日 14:09