アットウィキロゴ
Strawberry Chu♡Chu♡
ときめきアイドル project クッキーパラダイス

ADVANCED

Level: 6
BPM: 137
Notes: 535

1
口口口口 |----|
口口口口 |----|
口口口口 |----|
口口口口 |----|
2
口口口口 |①---|
口①①口 |----|
口②②口 |②---|
口口口口 |----|
3
④口口④ |①---|
①②②① |②---|
③口口③ |③---|
口口口口 |④---|
4
⑥口口⑥ |---①--|
③⑤⑤① |②----③|
口口口口 |--④---|
口②④口 |⑤--⑥--|
5
⑥口口⑥ |---①--|
①⑤⑤③ |②----③|
口口口口 |--④---|
口④②口 |⑤--⑥--|
6
⑥口口⑥ |---①--|
③⑤⑤① |②----③|
口口口口 |--④---|
口②④口 |⑤--⑥--|
7
⑥口口⑥ |---①--|
①⑤⑤③ |②----③|
口口口口 |--④---|
口④②口 |⑤--⑥--|
8
⑥口口⑥ |---①--|
③⑤⑤① |②----③|
口口口口 |--④---|
口②④口 |⑤--⑥--|
9
⑥口口⑥ |---①--|
①⑤⑤③ |②----③|
口口口口 |--④---|
口④②口 |⑤--⑥--|
10
口口口口 |---①--|
③口口① |②----③|
口口口口
口②口口

口口口口
口⑥口⑤
口口口口 |--④---|
口口④口 |⑤--⑥--|
11
④④②② |①-②-|
⑧⑧⑥⑥ |③-④-|
③③①① |⑤-⑥-|
⑦⑦⑤⑤ |⑦-⑧-|
12
⑥④②⑥ |①-②-|
口⑤⑤口 |③-④-|
口③①口 |⑤----⑥|
口口口口 |----|
13
口②口口 |--①-|
②口②口 |-----②|
①口①口 |----|
口①口口 |----|
14
⑥②④⑥ |①-②-|
口⑤⑤口 |③-④-|
口①③口 |⑤----⑥|
口口口口 |----|
15
口口①口 |--①-|
口①口① |-----②|
口②口② |----|
口口②口 |----|
16
⑦口口⑦ |①--②--|
口⑥⑥口 |③--④-⑤|
①口②口 |--⑥--⑦|
③⑤④口 |----|
17
口②口口 |--①-|
②口②口 |-----②|
①口①口 |----|
口①口口 |----|
18
⑥②④⑥ |①-②-|
口⑤⑤口 |③-④-|
口①③口 |⑤----⑥|
口口口口 |----|
19
口口①口 |--①-|
口①口① |-----②|
口②口② |----|
口口②口 |----|
20
③④口口 |①--②--|
口②⑤口 |③-④--⑤|
口口①口
口口口口

口口口口
口口口口
⑨⑧⑦口 |---⑥--|
口⑥口口 |⑦-⑧-⑨-|
21
①口口② |--①-|
①口口② |--②-|
④口口③ |--③-|
④口口③ |--④-|
22
口口口⑦ |--①-|
口⑥⑤口 |②-③-|
④口口③ |④-⑤-|
口②①口 |⑥-⑦-|
23
①口②口 |①--②--|
⑤口口口 |③-④--⑤|
口③④口 |----|
口口口口 |----|
24
①口口口 |--①-|
②口口⑤ |②-③-|
③口口⑥ |④-⑤-|
④口口⑦ |⑥-⑦-|
25
①②①② |①---|
口①②口 |----|
①②①② |②---|
口口口口 |----|
26
口口口⑥ |--①-|
⑤⑤口口 |②-③-|
③口口④ |④-⑤-|
口①②口 |--⑥-|
27
①口②口 |①-②-|
口口④口 |③----④|
③③口口
口口口口

⑥口口口
⑥口口口
口口口口 |----|
口⑤口口 |⑤----⑥|
28
口口口② |----|
口口口② |①----②|
③口口③ |----|
口口①口 |③---|
29
⑤⑤⑤⑤ |①--②--|
②口口② |③-④--⑤|
口④③口 |----|
①口口① |----|
30
④④③③ |---①--|
⑥口口⑥ |②--③--|
②⑤⑤① |④--⑤--|
②口口① |--⑥---|
31
口口①口 |①--②--|
口②口口 |③--④-⑤|
③口⑤④
口口口口

口⑦⑥口
⑦口口⑥
口口口口 |--⑥-|
口口口口 |⑦---|
32
③③④④ |---①--|
⑥口口⑥ |②--③--|
①⑤⑤② |④--⑤--|
①口口② |--⑥---|
33
口①口口 |①--②--|
口口②口 |③--④-⑤|
④⑤口③
口口口口

口⑥⑦口
⑥口口⑦
口口口口 |--⑥-|
口口口口 |⑦---|
34
②口口① |---①--|
⑦口口⑦ |②--③--|
②⑥⑤① |④--⑤-⑥|
④④③③ |---⑦--|
35
①③③① |①-②-|
⑤⑤⑤⑤ |③-④-|
②口口② |⑤---|
口④④口 |----|
36
⑦口口① |--①-|
⑥口②口 |②-③-|
⑤③口口 |④-⑤-|
④口口口 |⑥-⑦-|
37
⑤⑤⑤⑤ |①-②-|
口口口口 |③-④-|
④③②① |⑤---|
④③②① |----|
38
⑥口口⑥ |---①--|
③⑤⑤① |②----③|
口口口口 |--④---|
口②④口 |⑤--⑥--|
39
⑥口口⑥ |---①--|
①⑤⑤③ |②----③|
口口口口 |--④---|
口④②口 |⑤--⑥--|
40
⑥口口⑥ |---①--|
③⑤⑤① |②----③|
口口口口 |--④---|
口②④口 |⑤--⑥--|
41
⑥口口⑥ |---①--|
①⑤⑤③ |②----③|
口口口口 |--④---|
口④②口 |⑤--⑥--|
42
⑥口口⑥ |---①--|
③⑤⑤① |②----③|
口口口口 |--④---|
口②④口 |⑤--⑥--|
43
⑥口口⑥ |---①--|
①⑤⑤③ |②----③|
口口口口 |--④---|
口④②口 |⑤--⑥--|
44
口口口口 |---①--|
③口口① |②----③|
口口口口
口②口口

口口口口
口⑥口⑤
口口口口 |--④---|
口口④口 |⑤--⑥--|
45
④④②② |①-②-|
⑧⑧⑥⑥ |③-④-|
③③①① |⑤-⑥-|
⑦⑦⑤⑤ |⑦-⑧-|
46
②口③口 |①----②|
口④口口 |--③-|
口口①口 |④---|
口口⑤口 |--⑤-|
47
口口口② |①----②|
口口口口 |--③-|
③①口口 |④---|
口口④口 |----|
48
②口口口 |①----②|
口口口⑤ |--③-|
③口①⑥ |④-⑤-|
④口口⑦ |⑥-⑦-|
49
①②①② |①---|
口①②口 |----|
①②①② |②---|
口口口口 |----|
50
③口口口 |①----②|
口口②口 |--③-|
口口口口
口①口口

口口④口
口⑤口口
口口⑥口 |④-⑤-|
口⑦口口 |⑥-⑦-|
51
口口③③ |①----②|
口口①① |--③-|
②口口口
②口口口

④④口口
口口⑤口
口口⑤口 |④---|
口口⑤口 |⑤---|
52
口口口口 |----|
口口口口 |①---|
②①口② |----|
③①口③ |②-③-|
53
口②口① |①----②|
①口③口 |--③-|
口③②口 |④---|
口④④口 |----|
54
④④③③ |---①--|
⑥口口⑥ |②--③--|
②⑤⑤① |④--⑤--|
②口口① |--⑥---|
55
口口①口 |①--②--|
口②口口 |③--④-⑤|
③口⑤④
口口口口

口⑦⑥口
⑦口口⑥
口口口口 |--⑥-|
口口口口 |⑦---|
56
③③④④ |---①--|
⑥口口⑥ |②--③--|
①⑤⑤② |④--⑤--|
①口口② |--⑥---|
57
口①口口 |①--②--|
口口②口 |③--④-⑤|
④⑤口③
口口口口

口⑥⑦口
⑥口口⑦
口口口口 |--⑥-|
口口口口 |⑦---|
58
②口口① |---①--|
⑦口口⑦ |②--③--|
②⑥⑤① |④--⑤-⑥|
④④③③ |---⑦--|
59
①③③① |①-②-|
⑤⑤⑤⑤ |③-④-|
②口口② |⑤---|
口④④口 |----|
60
⑦口口① |--①-|
⑥口②口 |②-③-|
⑤③口口 |④-⑤-|
④口口口 |⑥-⑦-|
61
⑤⑤⑤⑤ |①-②-|
口口口口 |③-④-|
④③②① |⑤---|
④③②① |----|
62
口口口② |①-②-|
①口③口 |③-④-|
①④口口
口口口口

⑧口口口
⑦口口口
⑥口口口 |⑤-⑥-|
⑤口⑤口 |⑦-⑧-|
63
⑤③⑤① |①-②-|
口③口① |③-④-|
④⑤②⑤ |⑤---|
④口②口 |----|

accuracy: 99.5%
最終更新:2022年11月09日 18:25