アットウィキロゴ
Strawberry Chu♡Chu♡
ときめきアイドル project クッキーパラダイス

EXTREME

Level: 8
BPM: 137
Notes: 719

1
口口口口 |----|
口口口口 |----|
口口口口 |----|
口口口口 |----|
2
口口口口 |①---|
口①①口 |----|
口②②口 |②---|
口口口口 |----|
3
④口口④ |①---|
①②②① |②---|
③口口③ |③---|
口口口口 |④---|
4
④口②⑦ |---①--|
③⑤⑥① |②----③|
②口口口 |--④--⑤|
⑦①③④ |⑥--⑦--|
5
⑦②口④ |---①--|
①⑥⑤③ |②----③|
口口口② |--④--⑤|
④③①⑦ |⑥--⑦--|
6
④口②⑦ |---①--|
③⑤⑥① |②----③|
②口口口 |--④--⑤|
⑦①③④ |⑥--⑦--|
7
⑦②口④ |---①--|
①⑥⑤③ |②----③|
口口口② |--④--⑤|
④③①⑦ |⑥--⑦--|
8
④口②⑦ |---①--|
③⑤⑥① |②----③|
②口口口 |--④--⑤|
⑦①③④ |⑥--⑦--|
9
⑦②口④ |---①--|
①⑥⑤③ |②----③|
口口口② |--④--⑤|
④③①⑦ |⑥--⑦--|
10
口口②口 |---①--|
口③口① |②----③|
②口口口
口①口口

口口口⑨
口口口口
⑧⑥⑦⑤ |--④--⑤|
口口④口 |⑥-⑦⑧-⑨|
11
⑤①③⑦ |①-②-|
①⑤⑦③ |③-④-|
口口口口 |⑤-⑥-|
⑥②④⑧ |⑦-⑧-|
12
⑧②口⑧ |①--②--|
⑦④⑤口 |③-④⑤--|
口①③口 |⑥-⑦--⑧|
口口⑥口 |----|
13
口③口③ |---①--|
②口口口 |②----③|
②口口口
①口口①

口口口口
⑦口⑤⑥
口口口口 |--④--⑤|
口④口口 |⑥--⑦--|
14
⑨口②⑨ |①--②--|
口⑤④口 |③-④⑤-⑥|
⑩③①⑧ |⑦-⑧--⑨|
口⑥⑦口 |---⑩--|
15
③口③口 |---①--|
口口口② |②----③|
口口口②
①口口①

口口口口
口口口口
⑥⑤口⑦ |--④--⑤|
口口④口 |⑥--⑦--|
16
⑤①口① |①--②--|
④①①① |③--④-⑤|
口口①口
口②口③

口口⑥口
口口口口
⑧口⑦口 |--⑥--⑦|
口口口口 |--⑧---|
17
②③口③ |---①--|
②口口口 |②----③|
口口口口
①口口①

口口口口
⑦口⑤⑥
口口口口 |--④--⑤|
口④口口 |⑥--⑦--|
18
⑩口②⑩ |①--②--|
⑨⑤④口 |③-④⑤-⑥|
口③①⑧ |⑦-⑧--⑨|
口⑥⑦口 |--⑩---|
19
③口③口 |---①--|
口口口② |②----③|
口口口②
①口口①

口口口口
⑥⑤口⑦
口口口口 |--④--⑤|
口口④口 |⑥--⑦--|
20
口③②① |①--②--|
口⑤口口 |③-④--⑤|
口口④口
①②③口

⑦⑨⑧⑥
口口口⑥
口口口口 |---⑥--|
口口口口 |⑦-⑧-⑨-|
21
⑥⑦⑦口 |--①-|
口⑤⑤④ |②-③-|
②③③口 |④-⑤-|
口①①口 |⑥-⑦-|
22
口⑦口口 |--①-|
④口③口 |②-③-|
口口口口 |④-⑤-|
①⑥②⑤ |⑥-⑦-|
23
⑤口口① |①--②--|
⑤⑥口⑥ |③-④--⑤|
口③④② |---⑥--|
⑥口⑥口 |----|
24
口口口口 |--①-|
①口②口 |②-③-|
口口口口
③口口口

口口口⑦
口口⑦口
口⑤口⑥ |④-⑤-|
口⑤④⑥ |⑥-⑦-|
25
②①④③ |①---|
①②③④ |②---|
①②③④ |③---|
①②③④ |④---|
26
⑦口口口 |---①--|
口②口④ |②--③--|
①口③口 |④--⑤-⑥|
口⑤⑥口 |---⑦--|
27
口①②口 |①--②--|
⑤⑤口口 |③-④--⑤|
①口口②
口③④口

口口⑧⑧
口口口⑧
口口口口 |----|
⑦口口⑥ |⑥-⑦--⑧|
28
③③口口 |----|
③口口口 |①-②--③|
⑤④④⑤ |----|
口①②口 |④--⑤--|
29
口口③④ |①--②--|
④①口② |③-④--⑤|
口⑤口口
⑤②口①

⑧⑧口口
口⑦口口
口口⑦口 |--⑥-|
口口⑥⑥ |⑦-⑧-|
30
④⑥口① |---①--|
口③②⑦ |②--③--|
④口⑧① |④--⑤-⑥|
口③②⑤ |--⑦⑧--|
31
③口口② |①--②--|
①④④口 |③--④-⑤|
口②口口
①⑤⑤口

口⑥⑦口
⑥口口⑦
口口口口 |--⑥-|
⑦口口⑥ |⑦---|
32
①口⑥④ |---①--|
⑦②③口 |②--③--|
①⑧口④ |④--⑤-⑥|
⑤②③口 |--⑦⑧--|
33
①口口口 |①--②--|
口④⑤③ |③--④-⑤|
①口口②
④口②⑤

⑦口口⑥
口口口口
⑥口口⑦ |--⑥-|
口⑥⑦口 |⑦---|
34
口①⑤口 |---①--|
①③③② |②--③--|
⑦⑧②⑥ |④--⑤-⑥|
口④④口 |--⑦⑧--|
35
①②③④ |①-②-|
①②③④ |③-④-|
⑤⑤⑤⑤ |⑤---|
④③②① |----|
36
④⑤⑤口 |①-②-|
口③口⑥ |③-④-|
②口⑦口 |⑤-⑥-|
口①①⑧ |⑦-⑧-|
37
①口口① |①-②-|
口②②口 |③-④-|
③口口③
口④④口

⑥⑤⑤⑥
⑤口口⑤
口⑤⑤口 |⑤---|
口口口口 |⑥---|
38
④口②⑦ |---①--|
③⑤⑥① |②----③|
②口口口 |--④--⑤|
⑦①③④ |⑥--⑦--|
39
⑦②口④ |---①--|
①⑥⑤③ |②----③|
口口口② |--④--⑤|
④③①⑦ |⑥--⑦--|
40
④口②⑦ |---①--|
③⑤⑥① |②----③|
②口口口 |--④--⑤|
⑦①③④ |⑥--⑦--|
41
⑦②口④ |---①--|
①⑥⑤③ |②----③|
口口口② |--④--⑤|
④③①⑦ |⑥--⑦--|
42
④口②⑦ |---①--|
③⑤⑥① |②----③|
②口口口 |--④--⑤|
⑦①③④ |⑥--⑦--|
43
⑦②口④ |---①--|
①⑥⑤③ |②----③|
口口口② |--④--⑤|
④③①⑦ |⑥--⑦--|
44
口口②口 |---①--|
口③口① |②----③|
②口口口
口①口口

口口口⑨
口口口口
⑧⑥⑦⑤ |--④--⑤|
口口④口 |⑥-⑦⑧-⑨|
45
⑤①③⑦ |①-②-|
①⑤⑦③ |③-④-|
口口口口 |⑤-⑥-|
⑥②④⑧ |⑦-⑧-|
46
口口口口 |①----②|
①⑤④口 |--③-|
口③②口 |④---|
口口口口 |--⑤-|
47
①口口② |①----②|
口口口口 |--③-|
口③口口 |④---|
口口④口 |----|
48
口①口口 |①----②|
口口②口 |--③-|
口口口口
③口口口

口口口⑦
口口⑦口
口⑤口⑥ |④-⑤-|
口⑤④⑥ |⑥-⑦-|
49
②①④③ |①---|
①②③④ |②---|
①②③④ |③---|
①②③④ |④---|
50
口①口⑦ |①----②|
⑥口口口 |--③-|
②口口⑤ |④-⑤-|
④口③口 |⑥-⑦-|
51
口口口口 |①----②|
口口②口 |--③-|
口口口口
口①口③

口⑤口口
④⑤口④
④⑤口④ |④---|
口⑤口口 |⑤---|
52
①口口① |①-②-|
口④③④ |③---|
②⑦③② |④-⑤-|
⑥⑤③⑤ |⑥-⑦-|
53
口②②口 |①----②|
①口口③ |--③-|
口口口③
口口口口

口⑦口口
⑦口口口
口⑥⑤口 |④-⑤-|
⑥④④⑤ |⑥-⑦-|
54
④⑥口① |---①--|
口③②⑦ |②--③--|
④口⑧① |④--⑤-⑥|
口③②⑤ |--⑦⑧--|
55
③口口② |①--②--|
①④④口 |③--④-⑤|
口②口口
①⑤⑤口

口⑥⑦口
⑥口口⑦
口口口口 |--⑥-|
⑦口口⑥ |⑦---|
56
①口⑥④ |---①--|
⑦②③口 |②--③--|
①⑧口④ |④--⑤-⑥|
⑤②③口 |--⑦⑧--|
57
①口口口 |①--②--|
口④⑤③ |③--④-⑤|
①口口②
④口②⑤

⑦口口⑥
口口口口
⑥口口⑦ |--⑥-|
口⑥⑦口 |⑦---|
58
口①⑤口 |---①--|
①③③② |②--③--|
⑦⑧②⑥ |④--⑤-⑥|
口④④口 |--⑦⑧--|
59
①②③④ |①-②-|
①②③④ |③-④-|
⑤⑤⑤⑤ |⑤---|
④③②① |----|
60
④⑤⑤口 |①-②-|
口③口⑥ |③-④-|
②口⑦口 |⑤-⑥-|
口①①⑧ |⑦-⑧-|
61
①口口① |①-②-|
口②②口 |③-④-|
③口口③
口④④口

⑥⑤⑤⑥
⑤口口⑤
口⑤⑤口 |⑤---|
口口口口 |⑥---|
62
④口口口 |①-②-|
口③口口 |③-④-|
②口口口
①①①①

口⑤⑤口
口口口⑥
口⑦⑦口 |⑤-⑥-|
口口口⑧ |⑦-⑧-|
63
①⑤⑤① |①-②-|
⑤②②⑤ |③-④-|
③⑤⑤③ |⑤---|
口④④口 |----|

accuracy: 99.5%
最終更新:2022年11月09日 19:01