アットウィキロゴ
エレシュキガル
Noah

BASIC

Level: 3
BPM: 162
Notes: 205

1
口口口口 |----|
口口口口 |----|
口口口口 |----|
口口口口 |----|
2
口口口口 |①---|
口①②口 |----|
口口口口 |②---|
口口口口 |----|
3
口口口口 |①---|
口口口口 |----|
口①②口 |②---|
口口口口 |----|
4
口口口口 |①---|
口①②口 |----|
口口口口 |②---|
口口口口 |----|
5
口口口口 |①---|
口口口口 |----|
口①②口 |②---|
口口口口 |----|
6
①口口口 |①---|
②口口口 |----|
口口口口 |②---|
口口口口 |----|
7
口①口口 |①---|
口②口口 |----|
口口口口 |②---|
口口口口 |----|
8
口口①口 |①---|
口口口② |②---|
口口③口 |③---|
口口口④ |④---|
9
口口口口 |①---|
口①②口 |----|
口口口口 |②---|
口口口口 |----|
10
口①①口 |①---|
口口口口 |----|
口口口口 |----|
口口口口 |----|
11
口口口口 |①---|
口①①口 |----|
口口口口 |----|
口口口口 |----|
12
口口口口 |----|
口口口口 |----|
口口口口 |----|
口口口口 |----|
13
口口口口 |①---|
口①①口 |----|
口口口口 |----|
口口口口 |----|
14
口①①口 |--①-|
口②②口 |----|
口③③口 |②---|
口口口口 |--③-|
15
口口口口 |①---|
①口口① |----|
口口口口 |----|
口口口口 |----|
16
口口口口 |----|
口口口口 |----|
口口口口 |----|
口口口口 |----|
17
口口口口 |----|
口口口口 |----|
口口口口 |----|
口口口口 |----|
18
口①①口 |--①-|
口②②口 |----|
口③③口 |②---|
口口口口 |--③-|
19
口口口口 |----|
口口口口 |----|
口口口口 |----|
口口口口 |----|
20
口口口口 |①---|
口口口口 |----|
①②口口 |②---|
口口口口 |----|
21
口口口口 |①---|
①②口口 |----|
口口口口 |②---|
口口口口 |----|
22
口口口口 |①---|
口口口口 |----|
口口②① |②---|
口口口口 |----|
23
口口口口 |①---|
口口②① |----|
口口口口 |②---|
口口口口 |----|
24
口口②① |①---|
口口口口 |----|
口口口口 |②---|
口口口口 |----|
25
口口口口 |①---|
口口口口 |----|
①②口口 |②---|
口口口口 |----|
26
口口口口 |①---|
①②②口 |----|
口口口口 |②---|
口口口口 |----|
27
口①①口 |①---|
口口口口 |----|
口口口口 |----|
口口口口 |----|
28
口口口口 |①---|
口口口口 |----|
①②口口 |②---|
口口口口 |----|
29
口口口口 |①---|
①②口口 |----|
口口口口 |②---|
口口口口 |----|
30
口口口口 |①---|
口口口口 |----|
口口②① |②---|
口口口口 |----|
31
口口口口 |①---|
口口②① |----|
口口口口 |②---|
口口口口 |----|
32
口口②① |①---|
口口口口 |----|
口口口口 |②---|
口口口口 |----|
33
口口口口 |①---|
口①①口 |----|
口②③口 |②---|
口口口口 |③---|
34
口口口口 |①---|
口口口口 |----|
②口口① |②---|
口口口口 |----|
35
口①①口 |①---|
口口口口 |----|
口口口口 |----|
口口口口 |----|
36
口口口口 |----|
口口口口 |----|
口口口口 |----|
口口口口 |----|
37
口口口口 |①---|
口①①口 |----|
口口口口 |----|
口口口口 |----|
38
口口口口 |①---|
口①①口 |----|
口口口口 |----|
口口口口 |----|
39
口口口口 |①---|
口①①口 |----|
②口口② |②---|
口口口口 |----|
40
口②②口 |①---|
口①①口 |----|
口口口口 |②---|
口口口口 |----|
41
①口口① |①---|
口口口口 |----|
口②②口 |②---|
口口口口 |----|
42
口口口口 |①---|
口①①口 |----|
口②②口 |②---|
口口口口 |----|
43
口②②口 |①---|
口①①口 |----|
口口口口 |②---|
口口口口 |----|
44
①口口① |①---|
①②②① |----|
口②②口 |②---|
口口口口 |----|
45
口口口口 |①---|
口②②口 |----|
①②②① |②---|
①口口① |----|
46
①口口① |①---|
①口口① |----|
口口口口 |----|
口口口口 |----|
47
口口口口 |----|
口口口口 |----|
口口口口 |----|
口口口口 |----|
48
口口口口 |----|
口口口口 |----|
口口口口 |----|
口口口口 |----|
49
口口口口 |----|
口口口口 |----|
口口口口 |----|
口口口口 |----|
50
口口口口 |①---|
口①②口 |----|
口口口口 |②---|
口口口口 |----|
51
口口口口 |①---|
口口口口 |----|
口②①口 |②---|
口口口口 |----|
52
口口口口 |①---|
口①②口 |----|
口口口口 |②---|
口口口口 |----|
53
口口口口 |①---|
④③③④ |②---|
②①①② |③---|
口口口口 |④---|
54
口①①口 |①---|
口②②口 |----|
口口口口 |②---|
口口口口 |----|
55
口口口口 |①---|
口口口口 |----|
口①①口 |②---|
口②②口 |----|
56
口①①口 |①---|
口②②口 |----|
口口口口 |②---|
口口口口 |----|
57
口口口口 |①---|
口口口口 |----|
口①①口 |②---|
口②②口 |----|
58
口口口口 |①---|
口口口口 |----|
②口口② |②---|
①口口① |----|
59
②口口② |①---|
①口口① |----|
口口口口 |②---|
口口口口 |----|
60
口①①口 |①---|
口②②口 |----|
口口口口 |②---|
口口口口 |----|
61
口口口口 |①---|
口口口口 |----|
口①①口 |②---|
口②②口 |----|
62
口口口口 |①---|
①②③④ |②---|
口口口口 |③---|
口口口口 |④---|
63
口口口口 |①---|
口口口口 |②---|
④③口① |③---|
口口②口 |④---|
64
口口口口 |①---|
①②③④ |②---|
口口口口 |③---|
口口口口 |④---|
65
口①①口 |①---|
口口口口 |----|
口口口口 |----|
口口口口 |----|
66
口口口口 |①---|
口口口口 |②---|
①②③④ |③---|
口口口口 |④---|
67
口口口口 |①---|
口①①口 |----|
口口口口 |----|
口口口口 |----|
68
口口口口 |----|
口①①口 |----|
口口口口 |①---|
口口口口 |----|
69
口口口口 |----|
口口口口 |----|
口口口口 |----|
口口口口 |----|
70
口①①口 |--①-|
口②②口 |----|
口③③口 |②---|
口口口口 |--③-|
71
口口口口 |①---|
①口口① |----|
口口口口 |----|
口口口口 |----|
72
口口口口 |----|
口口口口 |----|
口口口口 |----|
口口口口 |----|
73
口口口口 |----|
口口口口 |----|
口口口口 |----|
口口口口 |----|
74
口①①口 |--①-|
口②②口 |----|
口③③口 |②---|
口口口口 |--③-|
75
②口口② |----|
①口口① |----|
口口口口 |①---|
口口口口 |②---|
76
口口口口 |①---|
口①①口 |----|
口口口口 |----|
口口口口 |----|

accuracy: 100%
最終更新:2023年07月09日 02:06