アットウィキロゴ
エレシュキガル
Noah

ADVANCED

Level: 6
BPM: 162
Notes: 352

1
口口口口 |----|
口口口口 |----|
口口口口 |----|
口口口口 |----|
2
口口口口 |①---|
②口口④ |②---|
口口口口 |③---|
①口口③ |④---|
3
口口口口 |①---|
口②④口 |②---|
口口口口 |③---|
口①③口 |④---|
4
口口口口 |①---|
②口口④ |②---|
口口口口 |③---|
①口口③ |④---|
5
口①①口 |①---|
口口口口 |----|
口②②口 |②---|
口口口口 |----|
6
口口口口 |①---|
①②口口 |②---|
口口③④ |③---|
口口口口 |④---|
7
口口口口 |①---|
口口口口 |②---|
①②口口 |③---|
口口③④ |④---|
8
④③②① |①---|
口口口口 |②---|
口口口口 |③---|
口口口口 |④---|
9
口口口口 |①---|
①②③④ |②---|
①②③④ |③---|
口口口口 |④---|
10
口①①口 |①---|
口口口口 |----|
口②②口 |②---|
口口口口 |----|
11
口口口口 |①---|
①口口① |----|
口口口口 |----|
口口口口 |----|
12
口口口口 |----|
口口口口 |----|
口口口口 |----|
口口口口 |----|
13
口口口口 |----|
口口口口 |----|
口口口口 |----|
口口口口 |----|
14
口口口口 |--①-|
①⑤⑤② |-②--|
③口口④ |③--④|
口口口口 |--⑤-|
15
口①①口 |①---|
口口口口 |----|
口口口口 |----|
口口口口 |----|
16
①口口① |①---|
口口口口 |----|
①口口① |----|
口口口口 |----|
17
口口口口 |①---|
口①①口 |----|
口口口口 |----|
口①①口 |----|
18
口口口口 |--①-|
①⑤⑤② |-②--|
③口口④ |③--④|
口口口口 |--⑤-|
19
④口口口 |①---|
口口口③ |②---|
口②口口 |③---|
口口①口 |④---|
20
口口口口 |①--②|
①②③口 |--③-|
口⑥⑤④ |④--⑤|
口口口口 |--⑥-|
21
口口口④ |①--②|
①②③口 |--③-|
口口口口 |④---|
口口口口 |----|
22
口口口口 |①--②|
①②③口 |--③-|
口⑥⑤④ |④--⑤|
口口口口 |--⑥-|
23
口口口口 |①--②|
①②③口 |--③-|
口⑥⑤④ |④--⑤|
口口口口 |--⑥-|
24
口口口口 |①--②|
①②③口 |--③-|
口口口口 |④---|
口口口④ |----|
25
口口口口 |①--②|
①②③口 |--③-|
口⑥⑤④ |④--⑤|
口口口口 |--⑥-|
26
口①①口 |①---|
②③④口 |----|
口口口口 |②--③|
口口口口 |--④-|
27
口口口口 |①---|
口口口口 |----|
口口口口 |----|
口①①口 |----|
28
口口口口 |①--②|
①②③口 |--③-|
口⑥⑤④ |④--⑤|
口口口口 |--⑥-|
29
口口口④ |①--②|
①②③口 |--③-|
口口口口 |④---|
口口口口 |----|
30
口口口口 |①--②|
①②③口 |--③-|
口⑥⑤④ |④--⑤|
口口口口 |--⑥-|
31
口口口口 |①--②|
①②③口 |--③-|
口⑥⑤④ |④--⑤|
口口口口 |--⑥-|
32
①②③④ |①--②|
①②③口 |--③-|
口口口④ |④---|
口口口口 |----|
33
口⑤⑤口 |①--②|
①②③口 |--③-|
口口口口 |④---|
口④④口 |⑤---|
34
口口口口 |①--②|
①②③口 |--③-|
口⑥⑤④ |④--⑤|
口口口口 |--⑥-|
35
口口口口 |①---|
口口口口 |----|
口口口口 |----|
口①①口 |----|
36
口口口口 |----|
口口口口 |----|
口口口口 |----|
口口口口 |----|
37
口口口口 |①---|
①①①① |----|
口②②口 |②---|
口口口口 |----|
38
口口口口 |①---|
①①①① |----|
口②②口 |②---|
口口口口 |----|
39
⑥③③⑥ |①--②|
①①①① |--③-|
口④④口 |④--⑤|
⑤②②⑤ |--⑥-|
40
⑤③③⑤ |①---|
①①①① |②---|
口④④口 |③--④|
口②②口 |--⑤-|
41
口口口口 |①---|
口口口口 |----|
①②②① |②---|
口口口口 |----|
42
口口口口 |①---|
①①①① |----|
口②②口 |②---|
口口口口 |----|
43
②②②② |①---|
①①①① |----|
口口口口 |②---|
口口口口 |----|
44
口口口口 |①---|
口①①口 |--②-|
口②②口 |----|
口③③口 |③---|
45
①①①① |①---|
②②②② |--②-|
③③③③ |----|
口口口口 |③---|
46
①①①① |①---|
口口口口 |----|
口口口口 |②---|
口口口② |----|
47
口口口口 |①---|
口口口口 |----|
①口口② |②---|
口口口口 |----|
48
口口口口 |①---|
①口口② |----|
口口口口 |②---|
口口口口 |----|
49
①口口② |①---|
口口口口 |----|
口口口口 |②---|
口口口口 |----|
50
口口口口 |①---|
口口口口 |----|
口口口口 |②---|
口①②口 |----|
51
口口口口 |①---|
口口口口 |----|
口①②口 |②---|
口口口口 |----|
52
口口口口 |①---|
口①②口 |----|
口口口口 |②---|
口口口口 |----|
53
②①③④ |①---|
口口口口 |②---|
口口口口 |③---|
口口口口 |④---|
54
口口口口 |①---|
口②口口 |②---|
④③口口 |③---|
口①口口 |④---|
55
④③口④ |①---|
②①口口 |②---|
口口口口 |③---|
口口口口 |④---|
56
口口口口 |①---|
口口②口 |②---|
口口③④ |③---|
口①①口 |④---|
57
口口口口 |①---|
口口①② |②---|
口口口口
口口口口

口口③④
口⑤⑤口
口口口口 |③---|
口口口口 |④-⑤---|
58
②口口口 |①---|
③口口口 |②---|
④①①口 |③---|
口口口口 |④---|
59
口口口口
口口口③
口⑤⑤④ |③---|
口口口口 |④-⑤---|
60
口口口② |①---|
口①①③ |②---|
口口口④ |③---|
口口口口 |④---|
61
口口口口 |①---|
口③④口 |②---|
口②口口 |③---|
口①口口 |④---|
62
①①口口 |①---|
②②口口 |②---|
③③口口 |③---|
④④口口 |④---|
63
口口①① |①---|
口口②② |②---|
口口③③ |③---|
口口④④ |④---|
64
口①①口 |①---|
口②②口 |②---|
口③③口 |③---|
口④④口 |④---|
65
口口口口 |①---|
①①①① |----|
口口口口 |----|
口口口口 |----|
66
口口口口 |①---|
①②④③ |②---|
口口口口 |③---|
口口口口 |④---|
67
口①①口 |①---|
口口口口 |----|
口口口口 |----|
口口口口 |----|
68
口口口口 |----|
口①①口 |----|
口①①口 |①---|
口口口口 |----|
69
口口口口 |----|
口口口口 |----|
口口口口 |----|
口口口口 |----|
70
口口口口 |--①-|
①⑤⑤② |-②--|
③口口④ |③--④|
口口口口 |--⑤-|
71
口口口口 |①---|
口口口口 |----|
口口口口 |----|
口①①口 |----|
72
口口口口 |----|
口口口口 |----|
口口口口 |----|
口口口口 |----|
73
口口口口 |----|
口口口口 |----|
口口口口 |----|
口口口口 |----|
74
口口口口 |--①-|
①⑤⑤② |-②--|
③口口④ |③--④|
口口口口 |--⑤-|
75
口④③口 |①-②-|
⑧口口⑦ |③-④-|
⑥口口⑤ |⑤-⑥-|
口②①口 |⑦-⑧-|
76
口口口口 |①---|
口①①口 |----|
口①①口 |----|
口口口口 |----|

accuracy: 100%
最終更新:2023年07月09日 02:21