アットウィキロゴ
エレシュキガル
Noah

EXTREME

Level: 9.6
BPM: 162
Notes: 705

1
口口口口 |----|
口口口口 |----|
口口口口 |----|
口口口口 |----|
2
⑩⑭⑯⑫ |①②③④|
⑨⑬⑮⑪ |⑤⑥⑦⑧|
②⑥⑧④ |⑨⑩⑪⑫|
①⑤⑦③ |⑬⑭⑮⑯|
3
⑩⑭⑯⑫ |①②③④|
⑨⑬⑮⑪ |⑤⑥⑦⑧|
②⑥⑧④ |⑨⑩⑪⑫|
①⑤⑦③ |⑬⑭⑮⑯|
4
口口口口 |①②③④|
口口口口 |⑤⑥⑦⑧|
⑥②④⑧
⑤①③⑦

⑩口口⑫
⑨口口⑪
口⑭⑯口 |⑨⑩⑪⑫|
口⑬⑮口 |⑬⑭⑮⑯|
5
口①①口 |①---|
口口口口 |----|
②口口② |②---|
口口口口 |----|
6
口口口口 |①②③④|
①②③④ |⑤⑥⑦⑧|
⑤⑥⑦⑧
口口口口

口口口口
⑬⑭⑮⑯
口口口口 |⑨⑩⑪⑫|
⑨⑩⑪⑫ |⑬⑭⑮⑯|
7
①②③④ |①②③④|
口口口口 |⑤⑥⑦⑧|
⑤⑥⑦⑧
口口口口

⑬⑭⑮⑯
口口口口
口口口口 |⑨⑩⑪⑫|
⑨⑩⑪⑫ |⑬⑭⑮⑯|
8
口⑫⑪⑩ |①-②-③-|
口③②① |④-⑤-⑥-|
口⑥⑤④ |⑦-⑧-⑨-|
口⑨⑧⑦ |⑩-⑪-⑫-|
9
③⑦⑦⑥ |①-②-|
①③⑥② |③-④-|
①⑤④② |⑤-⑥-|
⑤⑧⑧④ |⑦-⑧-|
10
口口口口 |①---|
①口口① |----|
口口口口
口口口口

口②⑤⑨
⑧口口口
④口口③ |②③④⑤|
口⑥口⑦ |⑥⑦⑧⑨|
11
口口口口 |①---|
口①①口 |----|
口①①口 |----|
口口口口 |----|
12
口③⑤口 |----|
②口口④ |----|
口口口口 |①-②③|
口①①口 |-④⑤-|
13
口口口口 |①---|
口口口口 |----|
口①①口 |----|
口口口口 |----|
14
⑤①①⑤ |--①-|
①③③⑤ |-②--|
④口③② |③--④|
④②②④ |--⑤-|
15
口④①口 |①-②-|
③口口口 |③④-⑤|
口①口②
口⑤口口

口口⑧⑨
口⑦口口
口口⑥口 |-⑥-⑦|
口口口口 |-⑧⑨-|
16
③④口口 |①-②-|
口口⑤⑥ |③④-⑤|
①口⑨⑩ |⑥-⑦⑧|
⑦⑧②口 |-⑨⑩-|
17
③④口② |①-②-|
①⑦口口 |③④-⑤|
⑤口⑧⑨ |-⑥-⑦|
口口⑥口 |-⑧⑨-|
18
⑤①①⑤ |--①-|
①③③② |-②--|
④③口⑤ |③--④|
④②②④ |--⑤-|
19
口①④口 |①②③④|
⑤口⑧口 |⑤⑥⑦⑧|
口⑦⑥口
口③②口

口⑬口⑯
口⑨口⑫
口口口口 |⑨⑩⑪⑫|
⑪⑮⑭⑩ |⑬⑭⑮⑯|
20
③口口⑥ |①--②|
②口口⑤ |--③-|
①口口④ |④--⑤|
口口口口 |--⑥-|
21
③口口口 |①--②|
②口④口 |--③-|
①口口口 |④---|
口口口口 |----|
22
③口口④ |①--②|
②口口⑤ |--③-|
①口口⑥ |④--⑤|
口口口口 |--⑥-|
23
口口口口 |①--②|
口③④口 |--③-|
口②⑤口 |④--⑤|
口①⑥口 |--⑥-|
24
③口口口 |①--②|
②口④口 |--③-|
①⑥口口 |④---|
口⑤口口 |--⑤⑥|
25
③口口⑥ |①--②|
②口口⑤ |--③-|
①口口④ |④--⑤|
口口口口 |--⑥-|
26
口口口⑥ |①---|
口①①⑤ |--②③|
口②③④ |④--⑤|
口口口口 |--⑥-|
27
⑤口④口 |①②③④|
①①⑧口 |⑤⑥⑦⑧|
口③口口
⑦口⑥②

口⑨口⑯
口⑬口⑫
口⑮⑭⑩ |⑨⑩⑪⑫|
口⑪口口 |⑬⑭⑮⑯|
28
③口口⑥ |①--②|
②口口⑤ |--③-|
①口口④ |④--⑤|
口口口口 |--⑥-|
29
③口口口 |①--②|
②口④口 |--③-|
①口口口 |④---|
口口口口 |----|
30
③口口④ |①--②|
②口口⑤ |--③-|
①口口⑥ |④--⑤|
口口口口 |--⑥-|
31
口口⑥⑥ |①--②|
口③口口 |--③-|
口②⑤⑤ |④--⑤|
口①④④ |--⑥-|
32
①①口口 |①--②|
②②口④ |--③-|
口⑥口口 |④---|
③⑤口④ |--⑤⑥|
33
②口口口 |①--②|
③口口口 |--③-|
①口④④ |④---|
口口⑤⑤ |⑤---|
34
口口①① |①--②|
口口②口 |--③-|
口口③口
口口口口

口口口⑥
口口口⑤
口口口④ |④--⑤|
口口口口 |--⑥-|
35
口口口口 |①-②③|
①①④口 |④---|
口③口口 |----|
②口口口 |----|
36
⑧口⑬① |--①②|
⑥⑫⑨③ |③④⑤⑥|
④⑩⑪⑤ |⑦⑧⑨⑩|
②⑭口⑦ |⑪⑫⑬⑭|
37
②①口口 |①---|
口口③④ |----|
⑥⑤口口 |②-③④|
口口口口 |-⑤⑥-|
38
②口口口 |①---|
口口③④ |----|
⑥⑤口口 |②-③④|
口口口① |-⑤⑥-|
39
⑤口口④ |①-②③|
③②口口 |--④-|
口口⑥⑦ |⑤-⑥⑦|
⑧口口① |--⑧-|
40
③①①③ |①---|
口口口口 |②---|
口④④口 |③--④|
⑤②②⑤ |--⑤-|
41
②①①口 |①---|
口口③④ |----|
⑥⑤口口 |②-③④|
口口口口 |-⑤⑥-|
42
②口口口 |①---|
口口③④ |----|
⑥⑤③④ |②-③④|
口口①口 |-⑤⑥-|
43
⑤口口④ |①-②③|
③②口口 |--④-|
口口⑥⑦ |⑤-⑥⑦|
⑧⑨⑩① |-⑧⑨⑩|
44
⑨①②⑩ |①②③④|
⑤③④⑥ |--⑤⑥|
⑦口口⑧ |⑦⑧--|
⑪口口⑫ |⑨⑩⑪⑫|
45
⑪①②⑫ |①②③④|
⑤⑦⑧⑥ |⑤⑥⑦⑧|
⑬⑨⑩⑭ |⑨⑩⑪⑫|
⑮③④⑯ |⑬⑭⑮⑯|
46
口③③口 |①---|
①②口口 |②---|
口④口口 |③---|
口口口口 |④---|
47
③口口③ |①---|
口口④口 |②---|
口口②口 |③---|
①口口① |④---|
48
口③③口 |①---|
口②口口 |②---|
口④口口 |③---|
口①①口 |④---|
49
③口口③ |①---|
口口④口 |②---|
口口②口 |③---|
①口口① |④---|
50
口③③口 |①---|
口②口口 |②---|
口④口口 |③---|
口①①口 |④---|
51
③口口③ |①---|
口口④口 |②---|
口口②口 |③---|
①口口① |④---|
52
口③③口 |①---|
口口口口 |②---|
口口口口 |③---|
②①①④ |④---|
53
口口口口 |①-②-③-|
口①②③ |④-⑤-⑥-|
口④⑤⑥
口口口口

口⑦⑧⑨
口⑩⑪⑫
口口口口 |⑦-⑧-⑨-|
口口口口 |⑩-⑪-⑫-|
54
口口口口 |①---②-|
口口口口 |③---|
①口口口
①口②③

口④口口
口⑥⑦口
⑧口口⑤ |④-⑤-⑥-|
口口⑨口 |⑦-⑧-⑨-|
55
⑤口口口 |①-②-③-|
①⑨⑧② |④-⑤-⑥-|
口③口⑥ |⑦-⑧-⑨-|
⑦⑩⑩④ |⑩---|
56
口①①口 |①---②-|
④口口③ |③-④-⑤-|
口②口口
口口口⑤

口⑩口口
口口⑦口
⑥口⑪⑨ |⑥-⑦-⑧-|
⑧口口口 |⑨-⑩-⑪-|
57
口口口② |①-②-③-|
⑤①⑧④ |④-⑤-⑥-|
⑨⑦⑪⑪ |⑦-⑧-⑨-|
口③⑩⑥ |⑩-⑪---|
58
②口①① |①---②-|
口④口③ |③-④-⑤-|
口口口口
口口口⑤

口口口⑪
口口⑦口
⑩⑧口口 |⑥-⑦-⑧-|
⑥口⑨口 |⑨-⑩-⑪-|
59
①口口口 |①-②-③-|
⑦③⑩④ |④-⑤-⑥-|
⑪⑪⑥② |⑦-⑧-⑨-|
⑨⑤口⑧ |⑩-⑪---|
60
①①口口 |①---②-|
口②口口 |③-④-⑤-|
口口⑤③
口④口口

口⑩口⑨
⑥口⑪口
口⑧口口 |⑥-⑦-⑧-|
口口口⑦ |⑨-⑩-⑪-|
61
口口口口 |①-②-③-|
口⑤口口 |④-⑤-⑥-|
①口④②
口③口⑥

⑪⑨口口
口口⑩⑧
口⑦口⑫ |⑦-⑧-⑨-|
口口口口 |⑩-⑪-⑫-|
62
口口口口 |①-②-③-|
③⑥⑨⑫ |④-⑤-⑥-|
②⑤⑧⑪ |⑦-⑧-⑨-|
①④⑦⑩ |⑩-⑪-⑫-|
63
口④口口 |①-②-③-|
③⑤⑨⑫ |④-⑤-⑥-|
②⑥⑧⑪ |⑦-⑧-⑨-|
①口⑦⑩ |⑩-⑪-⑫-|
64
口口口口 |①-②-③-|
③⑥⑨⑫ |④-⑤-⑥-|
②⑤⑧⑪ |⑦-⑧-⑨-|
①④⑦⑩ |⑩-⑪-⑫-|
65
口①①口 |①---|
口口口口 |----|
口口口口 |----|
口口口口 |----|
66
④口⑤口 |①-②③|
⑥口⑦③ |④⑤⑥⑦|
口口口②
口①①口

口⑨口⑩
口口口口
⑬⑧⑧⑭ |⑧-⑨⑩|
⑪口口⑫ |⑪⑫⑬⑭|
67
口口口口 |①---|
口口口口 |----|
口口口口 |----|
口①①口 |----|
68
口①①口 |----|
口②口口 |----|
口④③口 |①-②③|
口口⑤口 |-④⑤-|
69
口口口① |①---|
①口口口 |----|
①口口口 |----|
口口口口 |----|
70
⑤①①⑤ |--①-|
①③③⑤ |-②--|
④口③② |③--④|
④②②④ |--⑤-|
71
口①①口 |①-②-|
②口⑤口 |③④-⑤|
口①口③
口口④口

口口⑨口
口⑦口⑧
口口口口 |-⑥-⑦|
口口口⑥ |-⑧⑨-|
72
⑦口口⑤ |①-②-|
③⑧⑥口 |③④-⑤|
①④⑩口 |⑥-⑦⑧|
口口②⑨ |-⑨⑩-|
73
口④口⑤ |①-②-|
③口口② |③④-⑤|
口口口口
①口口口

口口口口
口口⑦口
口⑨口口 |-⑥-⑦|
⑧⑥口口 |-⑧⑨-|
74
⑦③③⑦ |①②③-|
口⑤⑤② |-④--|
口口①口 |⑤--⑥|
⑥④④⑥ |--⑦-|
75
口⑤口口 |①②③④|
③口⑥② |⑤⑥⑦⑧|
⑦①⑧口
口口④口

⑬口⑯⑫
口⑨口口
口⑮口⑩ |⑨⑩⑪⑫|
⑪口口⑭ |⑬⑭⑮⑯|
76
口口口口 |①---|
①口口① |----|
口口口口 |----|
口①①口 |----|

accuracy: 100%
最終更新:2023年07月09日 02:45