アットウィキロゴ
If
Pa's Lam System

BASIC

Level: 3
BPM: 170
Notes: 203

1
口口口口 |----|
口口口口 |----|
口口口口 |----|
口口口口 |----|
2
口口口① |①---|
口口口口 |----|
口口口口 |----|
口口口口 |----|
3
①口口口 |①---|
口口口口 |----|
口口口口 |----|
口口口口 |----|
4
口口口口 |①---|
口口口口 |----|
口①①口 |----|
口口口口 |----|
5
口口口口 |①---|
口口口② |----|
口口口① |②---|
口口口口 |----|
6
口口口① |①---|
口口口口 |----|
口口口口 |----|
口口口口 |----|
7
①口口口 |①---|
口口口口 |----|
口口口口 |----|
口口口口 |----|
8
口口口口 |①---|
口口口口 |----|
口①①口 |----|
口口口口 |----|
9
口口口口 |①---|
②口口口 |----|
①口口口 |②---|
口口口口 |----|
10
①口口口 |①---|
口②口口 |----|
口口口口 |②---|
口口口口 |----|
11
口口口口 |①---|
口口口口 |----|
口口①口 |②---|
口口口② |----|
12
①口口口 |①---|
口②口口 |----|
口口口口 |②---|
口口口口 |----|
13
口口口口 |①---|
口口口口 |----|
口口①口 |②---|
口口口② |----|
14
口口口① |①---|
口口②口 |----|
口口口口 |②---|
口口口口 |----|
15
口口口口 |①---|
口口口口 |----|
口①口口 |②---|
②口口口 |----|
16
口口口口 |①---|
口①①口 |----|
口口口口 |----|
口口口口 |----|
17
口口口口 |①---|
①口口① |----|
②口口② |②---|
口口口口 |----|
18
口口口口 |①---|
口②①口 |----|
口口口口 |②---|
口口口口 |----|
19
①②③口 |①---|
口口口口 |②---|
口口口口 |③---|
口口口口 |----|
20
口口口口 |①---|
口①②口 |----|
口口口口 |②---|
口口口口 |----|
21
口③②① |①---|
口口口口 |②---|
口口口口 |③---|
口口口口 |----|
22
口口口口 |①---|
口②①口 |----|
口口口口 |②---|
口口口口 |----|
23
口口口口 |①---|
口口口口 |----|
口②①口 |②---|
口口口口 |----|
24
口口口口 |①---|
④③②① |②---|
口口口口 |③---|
口口口口 |④---|
25
口①①口 |①---|
口口口口 |----|
口②②口 |②---|
口口口口 |----|
26
口口口口 |①---|
口②口口 |----|
口口口① |--②-|
口③口口 |--③-|
27
口口口口 |----|
口口口口 |----|
口②①口 |①---|
口口口口 |②---|
28
口口口口 |①---|
口口②口 |----|
①口口口 |--②-|
口口③口 |--③-|
29
口口口口 |----|
口口口口 |----|
口①②口 |①---|
口口口口 |②---|
30
口口口口 |①---|
口②口口 |----|
口口口① |--②-|
口③口口 |--③-|
31
口口口口 |----|
口口口口 |----|
口②①口 |①---|
口口口口 |②---|
32
口③口口 |①---|
①口②口 |--②-|
口口口口 |----|
口口口口 |③---|
33
口口口① |--①-|
口②③口 |----|
口口口口 |②---|
口口口口 |③---|
34
口口口② |①---|
口口口口 |----|
口①①③ |--②-|
口口口口 |--③-|
35
口①①口 |----|
口②②口 |----|
口口口口 |①---|
口口口口 |②---|
36
②口口口 |①---|
口口口口 |----|
③①①口 |--②-|
口口口口 |--③-|
37
口口口口 |----|
口②①口 |----|
口口口口 |①---|
口口口口 |②---|
38
口口口② |①---|
口口口口 |----|
口①①③ |②---|
口口口口 |--③-|
39
口口口口 |----|
口①②口 |----|
口口口口 |①---|
口口口口 |②---|
40
口②口① |①---|
口口③口 |--②-|
口口口口 |----|
口口口口 |③---|
41
口口口口 |--①-|
①②②口 |----|
口③③口 |②---|
口口口口 |③---|
42
①口口口 |①---|
②口口口 |----|
口口口口 |②---|
口口口口 |----|
43
口口口口 |①---|
口口口口 |----|
①口口口 |②---|
②口口口 |----|
44
口口口① |①---|
口口口② |----|
口口口口 |②---|
口口口口 |----|
45
口口口口 |①---|
口口口口 |----|
口口口① |②---|
口口口② |----|
46
口①口口 |①---|
口②口口 |----|
口口口口 |②---|
口口口口 |----|
47
口口口口 |①---|
口口口口 |----|
口①口口 |②---|
口②口口 |----|
48
口口①口 |①---|
口口②口 |----|
口口口口 |②---|
口口口口 |----|
49
口口口口 |①---|
口口口口 |----|
口口①口 |②---|
口口②口 |----|
50
口口口口 |①---|
①②③④ |②---|
口口口口 |③---|
口口口口 |④---|
51
口①口口 |①---|
口口口口 |----|
口②口口 |②---|
口口口口 |----|
52
口口口口 |①---|
④③②① |②---|
口口口口 |③---|
口口口口 |④---|
53
口口①口 |①---|
口口口口 |----|
口口②口 |②---|
口口口口 |----|
54
口口口口 |①---|
①口口② |②---|
③口口④ |③---|
口口口口 |④---|
55
口口口口 |①---|
口口口口 |②---|
口口口口 |③---|
①③④② |④---|
56
口①①口 |①---|
口②②口 |--②-|
口③③口 |----|
口口口口 |③---|
57
口口口口 |--①-|
口②③口 |----|
口口口口 |②---|
口①①口 |③---|
58
口口口① |----|
③口口② |①---|
③口口口 |②---|
口口口口 |--③-|
59
口口口口 |----|
口口口口 |----|
口①②口 |①---|
口口口口 |②---|
60
口口口口 |①---|
口②口口 |----|
口口口① |--②-|
口③口口 |--③-|
61
口口口口 |----|
口口口口 |----|
口②①口 |①---|
口口口口 |②---|
62
口口口口 |①---|
口口②口 |----|
①口口口 |--②-|
口口③口 |--③-|
63
口口口口 |----|
口口口口 |----|
口①②口 |①---|
口口口口 |②---|
64
口①①口 |①---|
口②②口 |--②-|
口③③口 |----|
口口口口 |③---|
65
口口口口 |--①-|
口③②口 |----|
口口口口 |②---|
口①①口 |③---|
66
口口②口 |①---|
①口口口 |----|
口口③口 |--②-|
口口口口 |--③-|
67
口口口口 |----|
口①②口 |----|
口口口口 |①---|
口口口口 |②---|
68
口②口口 |①---|
口口口① |----|
口③口口 |--②-|
口口口口 |--③-|
69
口口口口 |----|
口②①口 |----|
口口口口 |①---|
口口口口 |②---|
70
口口②口 |①---|
①③口口 |----|
口口④口 |②--③|
口口口口 |--④-|
71
口口口口 |----|
①口口① |----|
②口口② |①---|
口口口口 |②---|
72
口①①口 |①---|
口②②口 |--②-|
口③③口 |----|
口口口口 |③---|
73
口口口口 |----|
②口口② |----|
①口口① |①---|
口口口口 |②---|
74
①口口① |①---|
口口口口 |----|
口口口口 |----|
口口口口 |----|

accuracy: 100%
最終更新:2022年04月18日 18:45