アットウィキロゴ
If
Pa's Lam System

ADVANCED

Level: 7
BPM: 170
Notes: 481

1
口口口口 |----|
口口③口 |----|
口②口口 |--①-|
口口①口 |②-③-|
2
①①口口 |----|
口口口口 |----|
②②口口 |----|
口口口口 |①-②-|
3
口口③③ |----|
①②口口 |----|
口口口口 |--①-|
口口口口 |②-③-|
4
口口口口 |--①-|
口口口口 |----|
口口①① |----|
口口口口 |----|
5
口口口口 |①---|
口①①口 |----|
口口口口
口口口口

口口口口
口④口口
口口③口 |--②-|
口②口口 |③-④-|
6
口口口① |--①-|
口④口① |----|
口口③口 |--②-|
口②口口 |③-④-|
7
口口②口 |--①-|
口③口① |----|
口口④① |--②-|
口口口口 |③-④-|
8
口口口口 |----|
口口口口 |----|
口口口口 |----|
口口口口 |----|
9
③④口口 |①---|
口②②口 |----|
口①①口 |②---|
口口口口 |③-④-|
10
口口口① |①---|
④口②口 |②---|
⑤③口口 |③---|
口口口口 |④-⑤-|
11
口口①口 |----|
口②口口 |----|
口口③口 |①-②-|
口④口口 |③-④-|
12
口②口口 |--①-|
口口③① |----|
口④口① |②-③-|
口口⑤口 |④-⑤-|
13
口口口口 |--①-|
①口口③ |--②-|
①口口② |③---|
口口口口 |----|
14
①口口口 |①---|
口②口④ |②---|
口口③⑤ |③---|
口口口口 |④-⑤-|
15
口①口口 |----|
口口②口 |----|
口③口口 |①-②-|
口口④口 |③-④-|
16
口口口口 |--①-|
①口口口 |----|
①口口口 |----|
口口口口 |----|
17
口④④口 |①-②-|
③口②① |--③-|
口⑤⑤口 |--④-|
口口口口 |⑤---|
18
口口口口 |①---|
④③②① |②---|
口口口口 |③---|
口口口口 |④---|
19
③口口口 |①-②-|
口④④① |--③-|
口口口② |--④-|
口⑤⑤口 |⑤---|
20
口口口口 |①---|
口口口口 |②---|
①②③④ |③---|
口口口口 |④---|
21
口口口③ |①-②-|
①④④口 |--③-|
②口口口 |--④-|
口⑤⑤口 |⑤---|
22
口口口口 |①---|
口口口口 |②---|
④③②① |③---|
口口口口 |④---|
23
口口口口 |①---|
①②③④ |②---|
口口口口 |③---|
口口口口 |④---|
24
②口⑤① |①-②-|
口⑥口口 |③-④-|
④口⑦③ |⑤-⑥-|
口⑧口口 |⑦-⑧-|
25
①口口① |①-②-|
②口口② |--③-|
口④④口 |--④-|
③⑤⑤③ |⑤---|
26
口①①口 |①---|
⑤②口⑥ |②-③-|
口口③口 |④-⑤-|
⑤④口⑥ |--⑥-|
27
④口口⑤ |--①-|
口口③口 |②-③-|
④②口⑤ |④---|
口口①口 |⑤---|
28
⑤口②⑥ |①---|
口③口口 |②-③-|
⑤口④⑥ |④-⑤-|
口①①口 |--⑥-|
29
口③口口 |--①-|
⑥口②④ |②-③-|
口①口口 |④-⑤-|
口⑦⑤口 |⑥-⑦-|
30
①⑤⑤① |①---|
口口口口 |②-③-|
②③④口 |④---|
口口口口 |--⑤-|
31
口口口口 |-①--|
②④③① |②---|
口口口口 |③---|
口④③口 |④---|
32
②③①④ |①-②-|
⑤⑥④① |③-④-|
⑧口⑦口 |⑤-⑥-|
口口口⑦ |⑦-⑧-|
33
⑥口口⑤ |①-②-|
⑥口口⑤ |③-④-|
口①口② |⑤---|
③④②口 |⑥---|
34
口⑥⑤口 |①---|
④①①口 |②-③-|
⑥③口⑤ |④-⑤-|
口口②口 |--⑥-|
35
③口口③ |--①-|
口④④口 |②---|
口①②口 |③---|
口口口口 |④---|
36
口⑤口口 |①---|
⑤⑥口④ |②-③-|
⑥口③口 |④--⑤|
①②口① |--⑥-|
37
口口口口 |--①-|
⑤口口③ |②---|
口②①口 |③-④-|
口⑥④口 |⑤-⑥-|
38
①口口① |①---|
⑤口口④ |②-③-|
口③②口 |④--⑤|
⑤⑥⑥④ |--⑥-|
39
④口③⑤ |--①-|
④②口⑤ |②-③-|
①口口口 |④---|
口口口口 |⑤---|
40
口⑦口口 |①-②-|
⑦口口⑧ |③-④-|
④①⑥⑤ |⑤-⑥-|
①④③② |⑦-⑧-|
41
②口④③ |①-②-|
⑥②①⑥ |③-④-|
口⑤⑤口 |⑤---|
口口口口 |⑥---|
42
⑤口口① |①---|
口④口口 |----|
口口③口 |②-③-|
口口口② |④-⑤-|
43
④⑤⑥口 |----|
口口③口 |①-②-|
口②口口 |③-④⑤|
口口①口 |⑥---|
44
口⑦⑥⑤ |①---|
①④口口 |②-③-|
①口③口 |④-⑤⑥|
口②口口 |⑦---|
45
⑤⑥⑦口 |①---|
口口④① |②-③-|
口③口① |④-⑤⑥|
口口②口 |⑦---|
46
⑤口口口 |①---|
口口口④ |----|
③口口口 |②-③-|
口①①② |④-⑤-|
47
口口口口 |----|
④⑤⑥③ |①-②-|
口口②口 |③-④⑤|
口①口口 |⑥---|
48
①口口口 |①---|
⑤口⑦③ |②-③-|
①口口口 |④-⑤-|
④口⑥② |⑥-⑦-|
49
口口口⑧ |①-②-|
口②⑦④ |③-④-|
口⑥口口 |⑤-⑥-|
⑤①口③ |⑦-⑧-|
50
口口口口 |①---|
③①口② |②-③-|
⑤口①④ |④-⑤-|
⑦口口⑥ |⑥-⑦-|
51
口口口口 |①---|
③①①③ |----|
口口口口 |②---|
口②②口 |--③-|
52
①③②① |①---|
口⑤④口 |②-③-|
口⑦⑥口 |④-⑤-|
口口口口 |⑥-⑦-|
53
口口口口 |①---|
②口口② |----|
①口口① |②---|
口口口口 |----|
54
①口口① |①---|
口口口口 |②---|
口④②口 |③---|
③口口③ |④---|
55
口①①口 |①---|
④口口② |②---|
口口口口 |③---|
口③③口 |④---|
56
口①①① |①---|
口口口口 |--②-|
口口口口
②②②口

③③③口
口口口口
口口口口 |----|
口口口口 |③---|
57
③口口② |--①-|
口口口口 |----|
口③②口 |②---|
口①①① |③---|
58
口口口口 |----|
口⑤④口 |①---|
①口口① |②-③-|
口③②口 |--④⑤|
59
③口口② |①---|
①口④口 |--②-|
⑤口口口 |③-④-|
口口⑥口 |⑤-⑥-|
60
口口口口 |①---|
口①口口 |----|
口①口口
口口口口

口口口口
口④口口
口口③口 |--②-|
口口口② |③-④-|
61
②口口① |①-②-|
④口口③ |③-④-|
⑥口口⑤ |⑤-⑥-|
⑧口口⑦ |⑦-⑧-|
62
口⑦①⑧ |①-②-|
口②⑥⑧ |③-④-|
口口③⑤ |⑤-⑥-|
口④口口 |⑦-⑧-|
63
①口口口 |--①-|
①口口口 |--②-|
③④④② |--③-|
③口口② |--④-|
64
④口口④ |①-②-|
②口口① |--③-|
⑤口口⑤ |--④-|
口③③口 |--⑤-|
65
⑤口口④ |--①-|
⑤口①④ |②-③-|
口②口口 |④---|
③口口口 |⑤---|
66
口④④口 |----|
口口口口 |①---|
③口口② |②-③-|
口①①口 |--④-|
67
口口口① |--①-|
④④②口 |②-③-|
口③口口 |④---|
口⑤⑤口 |⑤---|
68
④口口① |①-②-|
口口②口 |③-④-|
口③口口
口口口口

口口⑧⑦
口⑤口口
口口⑥口 |⑤-⑥-|
口口口口 |⑦-⑧-|
69
③口口口 |①-②-|
口④口口 |③-④-|
①②口口
口口口口

口口口⑥
口口⑦口
口⑧⑤口 |⑤-⑥-|
口口口口 |⑦-⑧-|
70
⑤口口④ |①---|
①口口① |②-③-|
⑤⑥⑥④ |④--⑤|
口③②口 |--⑥-|
71
口①①口 |----|
③口口② |①---|
③口口② |②---|
口口口口 |③---|
72
⑥④口⑤ |①-②-|
口口③口 |③-④-|
⑥②口⑤ |--⑤-|
口口①口 |--⑥-|
73
口口⑦口 |--①-|
口⑥③口 |②-③-|
口②⑤口 |④-⑤-|
口④①口 |⑥-⑦-|
74
口口口口 |①---|
①口口① |----|
①口口① |----|
口口口口 |----|

accuracy: 100%
最終更新:2022年04月18日 18:54