アットウィキロゴ
If
Pa's Lam System

EXTREME

Level: 9.8
BPM: 170
Notes: 685

1
口口口口 |----|
口口口③ |----|
口口②口 |--①-|
口口口① |②-③-|
2
口②口口 |①---|
①口③口 |----|
口口口口 |----|
①口口口 |②-③-|
3
口⑤口③ |①---|
①口④口 |----|
②②口口 |②-③-|
①口口口 |④-⑤-|
4
口口口口 |①-②-|
口口口口 |----|
口口口② |----|
①①口口 |----|
5
口口口口 |①---|
⑤口口口 |----|
口④②② |②-③-|
③口①① |④-⑤-|
6
口⑤①① |①-②-|
口口口口 |----|
④口口口 |--③-|
口③②口 |④-⑤-|
7
③口口口 |①-②-|
口④口① |----|
口②⑤口 |--③-|
口口口① |④-⑤-|
8
口口口口 |①---|
①口口① |----|
口口口口 |----|
口口口口 |----|
9
口口口口 |①---|
口口口口 |----|
口①①口
口口口口

口口口口
口②②口
口口④口 |②---|
口③口口 |③-④-|
10
①口口① |①---|
②口②口 |②---|
口口口口
口口口口

口口④⑤
口口口口
③口口③ |③---|
④口口口 |④-⑤-|
11
①口口⑥ |①---|
②⑤口口 |②---|
③口④口 |③-④-|
⑤口口③ |⑤-⑥-|
12
①口口⑦ |①-②-|
③⑥口口 |③---|
④口⑤② |④-⑤-|
⑥口口④ |⑥-⑦-|
13
①口口口 |①-②-|
③口口口 |③---|
④口口② |④---|
⑤口口口 |⑤---|
14
①口口① |①---|
口②口② |②---|
口口口口
口口口口

⑤④口口
口口口口
③口口③ |③---|
口口口④ |④-⑤-|
15
⑥口口① |①---|
口口⑤② |②---|
口④口③ |③-④-|
③口口⑤ |⑤-⑥-|
16
口口口① |①-②-|
口口口③ |③---|
②口口④ |④---|
口口口⑤ |⑤---|
17
口②①口 |①-②-|
口⑨⑩⑪ |③-④-|
口⑥⑦⑧ |⑤-⑥⑦|
⑤④③⑤ |⑧⑨⑩⑪|
18
①③①③ |①---|
口口口口 |②---|
口口口口 |③---|
②④②④ |④---|
19
口口①口 |①-②-|
口②口③ |--③-|
口④⑤口 |--④-|
口口③口 |⑤---|
20
③①③① |①---|
口口口口 |②---|
口口口口 |③---|
④②④② |④---|
21
口①口口 |①-②-|
③口②口 |--③-|
口⑤④口 |--④-|
口③口口 |⑤---|
22
②口口① |①-②-|
④口口③ |③-④-|
⑥口口⑤ |⑤-⑥-|
⑧口口⑦ |⑦-⑧-|
23
口⑧⑦口 |①-②-|
口⑥⑤口 |③-④-|
口④③口 |⑤-⑥-|
口②①口 |⑦-⑧-|
24
⑬⑭⑮⑯ |①②③④|
⑨⑩⑪⑫ |⑤⑥⑦⑧|
⑤⑥⑦⑧ |⑨⑩⑪⑫|
①②③④ |⑬⑭⑮⑯|
25
口⑤⑤口 |①-②-|
③④④口 |--③-|
口口②口 |--④-|
③①口口 |⑤---|
26
②⑦⑦① |①---|
③口口① |②③④⑤|
④⑤⑥口 |⑥-⑦-|
⑧⑧口口 |--⑧-|
27
⑥⑥口口 |--①②|
口①②③ |③④⑤-|
口口口④ |⑥---|
口⑦⑦⑤ |⑦---|
28
口⑦⑦② |①---|
①口口③ |②③④⑤|
①⑥⑤④ |⑥--⑦|
⑧口口⑧ |--⑧-|
29
④口⑤口 |--①-|
②口③口 |②③④⑤|
口口口①
口口①口

口⑦口⑥
口⑨口⑧
⑪口⑩口 |⑥⑦⑧⑨|
⑬口⑫口 |⑩⑪⑫⑬|
30
②③④口 |①---|
口口⑤口 |②③④⑤|
口口口①
口口口①

口口口口
口⑨口⑩
口⑧⑥⑩ |⑥-⑦⑧|
口⑦口口 |⑨-⑩-|
31
①⑥②⑤ |-①②-|
③⑧④⑦ |③④--|
⑪口⑫口 |⑤⑥⑦⑧|
⑨口⑩口 |⑨⑩⑪⑫|
32
口口口⑤ |①-②③|
②口④⑤ |④-⑤-|
口③口①
口口口①

⑥口⑧口
⑩⑦口口
口⑪口⑨ |⑥⑦⑧-|
口口口⑨ |⑨-⑩⑪|
33
③口⑤② |①-②-|
口④①② |③④⑤-|
⑥口口⑦ |⑥---|
⑥口口⑦ |⑦---|
34
④⑤⑥① |①---|
③口口⑦ |②③④⑤|
②口①⑦ |⑥-⑦-|
⑧⑧口口 |--⑧-|
35
①⑥②⑥ |--①-|
口口③口 |②③④⑤|
口①④口 |⑥---|
口⑦⑤⑦ |⑦---|
36
口⑦⑦② |①---|
①口口③ |②③④⑤|
①⑥⑤④ |⑥--⑦|
口⑧⑧口 |--⑧-|
37
④⑦⑤⑥ |--①-|
②⑨③⑧ |②③④⑤|
⑪口⑩① |⑥⑦⑧⑨|
⑬口⑫① |⑩⑪⑫⑬|
38
⑥③⑥⑤ |①---|
②⑧④口 |②③④⑤|
口⑧口① |⑥--⑦|
⑦口⑦① |--⑧-|
39
⑥⑤④③ |--①②|
口口口② |③④⑤⑥|
⑧口⑧① |⑦---|
⑦口⑦口 |⑧---|
40
口口口⑤ |①-②③|
②口④⑤ |④-⑤-|
口③口①
口口口①

⑥口⑧口
⑩⑦口口
口⑪口⑨ |⑥⑦⑧-|
口口口⑨ |⑨-⑩⑪|
41
③口⑤② |①-②-|
口④①② |③④⑤-|
口⑦⑦口 |⑥---|
⑥口口⑥ |⑦---|
42
口①口① |①---|
口口口口 |----|
口口口口
口口口口

口⑥③口
⑥口④口
口②⑤② |②-③④|
口口口口 |⑤-⑥-|
43
口口口① |----|
口②⑦⑦ |①-②-|
口口口③ |③-④⑤|
口④⑤⑥ |⑥-⑦-|
44
①口②③ |①---|
①⑧⑧口 |②-③-|
⑦⑥⑤④ |④⑤⑥⑦|
口⑨⑨口 |⑧-⑨-|
45
⑤⑥⑦口 |①---|
①口口③ |②-③-|
④口口② |④-⑤⑥|
①口口口 |⑦---|
46
口口口口 |①---|
口②⑥口 |----|
口③口⑤ |②③④-|
①④①口 |⑤-⑥-|
47
⑥⑤④口 |----|
口②口③ |①-②-|
①口⑦⑦ |③-④⑤|
口口口口 |⑥-⑦-|
48
口口口③ |①---|
①口③口 |②-③-|
①口口口
口口口②

口⑦⑤口
⑦口口⑤
口口口口 |④-⑤-|
口⑥④口 |⑥-⑦-|
49
②口口④ |①-②-|
口②④口 |③-④-|
⑤⑥⑦⑧ |⑤-⑥-|
①口口③ |⑦-⑧-|
50
①①口口 |①-②-|
③口④② |③-④-|
口口口口
口口口口

口⑨⑧口
口口口口
⑤口口⑥ |⑤-⑥-|
⑦口口口 |⑦-⑧⑨|
51
①⑧⑨口 |①-②-|
③口④② |③-④-|
⑤口口⑥ |⑤-⑥-|
⑦口口口 |⑦-⑧⑨|
52
口⑧⑨① |①-②-|
②④口③ |③-④-|
⑥口口⑤ |⑤-⑥-|
口口口⑦ |⑦-⑧⑨|
53
口口口① |①-②-|
②④口③ |③-④-|
⑥⑧口⑤ |⑤-⑥-|
口口口⑦ |⑦-⑧-|
54
①②口口 |①-②-|
③④口口 |③-④-|
⑤⑥口口 |⑤-⑥-|
⑦⑧口口 |⑦-⑧-|
55
口口②① |①-②-|
口口④③ |③-④-|
口口⑥⑤ |⑤-⑥-|
口口⑧⑦ |⑦-⑧-|
56
①②②② |①---|
①口口口 |--②-|
①③③③ |----|
①口口口 |③---|
57
③口口② |--①-|
口①口口 |----|
③口口② |②---|
口①口口 |③---|
58
口口口口 |①---|
⑤④③② |②③④⑤|
口口口口
口①①口

⑥口口⑥
口口口口
⑦口口⑦ |⑥-⑦-|
⑧⑨口口 |--⑧⑨|
59
口⑧⑨口 |①---|
口⑤⑥⑦ |--②③|
口②③④ |④-⑤⑥|
口口①口 |⑦-⑧⑨|
60
口⑥⑦① |①---|
②口口③ |----|
口口口口 |--②③|
口④⑤口 |④⑤⑥⑦|
61
⑤⑬⑭⑥ |①②③④|
⑪③④⑫ |⑤⑥⑦⑧|
①⑨⑩② |⑨⑩⑪⑫|
⑦⑮⑯⑧ |⑬⑭⑮⑯|
62
①⑥口口 |①-②-|
口②④⑧ |③-④-|
⑤口⑦③ |⑤-⑥-|
口口⑧口 |⑦-⑧-|
63
口口②④ |①-②-|
①口④口 |③-④-|
③口口②
口口口口

口口口口
⑧⑤口⑧
口⑦⑥口 |⑤-⑥-|
口口口⑥ |⑦-⑧-|
64
⑤①①④ |①-②-|
口口口口 |--③-|
③④⑤③ |--④-|
口②②口 |--⑤-|
65
⑤①口⑤ |--①-|
口口②口 |②-③-|
口③口口 |④---|
④口口④ |⑤---|
66
⑦⑦口口 |①---|
口①①② |②③④⑤|
⑧⑧口③ |⑥-⑦-|
口⑥⑤④ |--⑧-|
67
口⑥②⑥ |--①-|
口口③① |②③④⑤|
口口④① |⑥---|
口⑦⑤⑦ |⑦---|
68
①⑤口口 |①-②③|
口口口口 |④-⑤-|
口④③②
口口口口

⑨口口口
⑩⑧⑦⑥
⑪口口口 |⑥⑦⑧-|
口口口口 |⑨⑩⑪-|
69
口口口① |①-②③|
口口⑦⑥ |④⑤⑥⑦|
口口口口
⑤④③②

口口⑮⑭
⑨⑧口口
⑬⑫⑪⑩ |⑧⑨⑩⑪|
口口口口 |⑫⑬⑭⑮|
70
口①口口 |①---|
口口口口 |②③④⑤|
口口口⑤
口②③④

口⑧⑦口
⑥口口⑥
口⑦⑧口 |⑥--⑦|
口口口口 |--⑧-|
71
③口口③ |--①②|
口①②口 |③---|
⑪⑦⑩⑥ |④⑤⑥⑦|
⑨⑤⑧④ |⑧⑨⑩⑪|
72
⑥①①⑥ |①-②③|
②③④⑤ |④⑤⑥-|
⑧口口⑦ |--⑦-|
⑧口口⑦ |--⑧-|
73
④口口③ |--①-|
②⑥⑤① |②-③-|
⑥④③⑤ |④-⑤-|
⑦②①⑦ |⑥-⑦-|
74
口①①口 |①---|
①口口① |----|
口口口口 |----|
口口口口 |----|

accuracy: 100%
最終更新:2022年04月18日 19:08