アットウィキロゴ
birth
Yu_Asahina

EXTREME

Level: 10.5
BPM: 200-220
Notes(hold): 902(45)

1
口口口口 |----|
口口口口 |----|
口口口口 |----|
口口口口 |----|
2
∨口口口 |①---|
┃口∨口 |----|
①口┃口 |----|
口口①口 |----|
3
口口口∨ |①---|
口∨口┃ |----|
①┃口① |----|
口①①口

口口口口
口②口口
口口②②
口②口口 |②---|
4
口∨口口 |①---|
∨┃口口 |----|
┃①口口 |----|
①口口口 |----|
5
口口∨口 |①---|
口口┃∨ |----|
口①①┃ |----|
①口口①

口口口口
②口口②
口口②口
口口口② |②---|
6
口口口口 |①---|
口∨∨口 |----|
口┃┃口 |----|
口①①口 |----|
7
∨口口∨ |①---|
┃口口┃ |----|
①口口① |----|
口①①口

口口口口
口②②口
②口口②
口口口口 |②---|
8
口∨口口 |①---|
口┃口口 |----|
口┃口口 |----|
口①口口 |----|
9
口口∨口 |①---|
口口┃口 |----|
口口①口 |----|
口口口口 |----|

BPM: 220
10
口口口∨ |①---|
口口口┃ |----|
口口①┃ |----|
口口口① |----|
11
口口口口 |----|
口口口口 |----|
①口②口 |①---|
口①口② |②---|
12
口⑤口② |①-②-|
⑤⑦④口 |③-④-|
口口⑦① |⑤-⑥-|
⑥⑥③口 |--⑦-|
13
口⑤口① |--①-|
⑤口③口 |②-③-|
④④口口 |④-⑤-|
口口②口 |----|
14
⑦口④口 |①-②-|
⑥⑤口② |③-④-|
⑤⑥③口 |⑤-⑥-|
口⑦口① |--⑦-|
15
⑦③口① |--①-|
口口口⑥ |②-③-|
⑤口②口 |④-⑤-|
③口①④ |⑥-⑦-|
16
口⑤口② |①-②-|
⑤⑦④口 |③-④-|
口口⑦① |⑤-⑥-|
⑥⑥③口 |--⑦-|
17
口⑤口① |--①-|
⑤口③口 |②-③-|
④④口口 |④-⑤-|
口口②口 |----|
18
口口④口 |①-②-|
⑥⑤口② |③-④-|
⑤⑥③口 |⑤-⑥-|
⑦口⑦① |--⑦-|
19
③口口口 |----|
口③②③ |①---|
②口口口 |②---|
口①口口 |③---|
20
口⑤③① |①-②-|
⑤⑦口口 |③-④-|
口口⑦口 |⑤-⑥-|
⑥⑥④② |--⑦-|
21
口⑤②口 |--①-|
⑤口口口 |②-③-|
④④口口 |④-⑤-|
口口③① |----|
22
口⑦③① |①-②-|
⑥⑤口口 |③-④-|
⑤⑥口口 |⑤-⑥-|
⑦口④② |--⑦-|
23
⑦口①口 |--①-|
口口口⑥ |②-③-|
⑤口②口 |④-⑤-|
口③④① |⑥-⑦-|
24
口①②① |①---|
口③①口 |----|
口①④① |②-③-|
口⑤口口 |④-⑤-|
25
①③④口 |----①-|
④④②① |--②---|
③①⑤③ |③---④-|
②⑤⑤② |--⑤---|
26
口口⑤① |①---|
口口口口 |②---|
④②口口 |③---|
口口口③ |④-⑤-|
27
口口口④ |----|
口①口口 |--①-|
口②口口 |②--③|
口口口③ |--④-|
28
口①②口 |①---|
①口口② |--②-|
口⑤口口 |--③-|
③口④口 |④-⑤-|
29
①口口② |----|
口①②⑤ |①---|
④口口口 |②-③-|
口口口③ |④-⑤-|
30
④①①口 |①---|
口⑤口口 |②-③-|
口口⑤口 |--④-|
②③口⑤ |--⑤-|
31
口③口口 |----|
③口口口 |①---|
①①口② |②---|
口口②口 |③---|
32
口口口① |①---|
口口①口 |----|
口口口口
①━━<

②口④口
口②口口
②━━< |②---|
②口口③ |③-④-|
33
口口口口 |①---|
①━━< |----|
①口口口
口口口口

②━━<
②口⑤口
口口口④ |②-③-|
口口③口 |④-⑤-|
34
①口⑤① |①---|
口口口口 |②---|
④②③口 |③---|
口口口口 |④-⑤-|
35
口⑤口口 |----|
口①④口 |--①-|
口口口口 |②-③-|
口②③口 |④-⑤-|
36
④⑥⑥① |①---|
④③口① |②-③-|
①⑤②④ |④-⑤-|
①⑥⑥④ |--⑥-|
37
⑤口口口 |--①-|
口④②口 |②-③-|
⑤口③口 |④---|
①口口口 |⑤---|
38
口④⑤① |①---|
④口③⑤ |②-③-|
口②口① |--④-|
口口口口 |--⑤-|
39
口口口口 |----|
口口口口 |①---|
①②③口 |②---|
口①②③ |③---|
40
①口口⑧ |①-②-|
口⑤④口 |③-④-|
口口口② |⑤-⑥-|
③⑦⑥口 |⑦-⑧-|
41
⑤①④⑯ |①②③④|
⑨⑬⑫⑧ |⑤⑥⑦⑧|
③⑪②⑥ |⑨⑩⑪⑫|
⑦⑮⑭⑩ |⑬⑭⑮⑯|
42
口①<口 |①---|
口口口口
口口口口
口口口口

③③口口
∧口口④ |②-③-|
口口②⑤ |④---|
口口口口 |⑤---|
43
①口①④ |①---|
⑥<口口 |②-③-|
>④口口 |④-⑤-|
②<②⑥ |⑥-⑦-|

口口口口
⑦口口口
口⑤口口
③口口口
44
②①口口 |①---|
⑦<①④ |②-③-|
口⑤②⑥ |④-⑤-|
口③口口 |⑥-⑦-|
45
③口①③ |①---|
②口口口 |②---|
口口口口 |③---|
④口②④ |④---|
46
口口口口 |①---|
口①口口
口口>①
口口口口

口口口∨
④口口③ |②-③-|
⑤②口③ |④---|
口口口口 |⑤---|
47
口①口口 |①---|
口口口①
口口口口
口口口口

④口>②
口口④< |②-③-|
口口>⑥ |④-⑤-|
⑥②口口 |⑥-⑦-|

口口口③
口口⑤口
口口口⑦
口口口口
48
口口口口 |①---|
口①口口
口口口口
口口①<

口口口口
④口口∨ |②-③-|
⑤②口┃ |④---|
口口③③ |⑤---|
49
④①口⑦ |①---|
口口口口 |②-③-|
口口口⑤ |④--⑤|
⑥②③① |⑥-⑦-|
50
口①<口 |①---|
口口①③ |②---|
口口②口 |③---|
口口口口

口④口口
④口口口
>⑤口④
口口口口 |④-⑤-|
51
③口①③ |①---|
口②口口 |②---|
口②口口 |③---|
④口②④ |④---|
52
口口口口 |①---|
①<①口
口口口口
口口口口

口口口口
③口口④ |②-③-|
口③②⑤ |④---|
口⑤口口 |⑤---|
53
口口①③ |①---|
>③口口 |②---|
①<口口 |③---|
口口②④ |④---|

口口口口
口④口口
③口口口
口口口口
54
①②⑥⑤ |①-②-|
口口④③ |--③-|
口口④③ |④---|
①②⑥⑤ |⑤-⑥-|
55
③口口④ |--①-|
①②口口 |②---|
①②口口 |③---|
③口口④ |④---|
56
口①②口 |①-②-|
⑤③④⑧ |--③-|
⑥③④⑧ |④-⑤⑥|
⑦①②口 |⑦-⑧-|
57
⑨①②⑧ |--①-|
口⑤口口 |②-③-|
口⑦⑥口 |④⑤⑥⑦|
⑪③④⑩ |⑧⑨⑩⑪|
58
口口③口 |①---|
②口①③ |②---|
口口口③ |③---|
④口口口 |----④-|
59
口③口① |----①-|
③口③口 |②---|
口口②口 |③---|
口④口口 |④---|
60
口③口口 |①---|
③口口② |②---|
③口口口 |③---|
口口④① |----④-|
61
①口⑦⑤ |----①-|
口口口③ |②---③-|
口②口口 |④-⑤-⑥-|
④⑥口口 |⑦---|
62
口口口口 |①---|
②口口③ |②---|
①口③口 |③---|
口④③口 |----④-|
63
口口①口 |----①-|
③口③口 |②---|
口③口② |③---|
口口④④ |④---|
64
①⑤③① |①---|
⑤①口口 |②---|
②口②② |③-④-|
口④口口 |--⑤-|
65
口口②② |----|
口口口① |①---|
口口①口 |②---|
口③②② |③---|
66
口③口口 |①---|
③口②口 |②---|
③口口① |③---|
口④口口 |----④-|
67
口口③① |----①-|
口口口口 |②---|
口③②③ |③---|
④口口口 |④---|
68
④口⑦④ |①---②-|
①③②① |--③---|
口⑤⑥口 |④---⑤-|
口②③口 |⑥---⑦-|
69
口口口口 |----①-|
②⑥⑤① |②-③-④-|
口口口口 |⑤-⑥-⑦-|
④⑧⑦③ |⑧---|
70
④①①④ |①---|
②④④③ |--②-|
①②③① |--③-|
②口口③ |--④-|
71
口口②口 |---①-|
口口口口 |②---|
③③口② |③---|
③①④口 |④---|
72
①②口∨ |①-②-|
③④口┃ |③-④-|
⑤⑥口┃ |⑤-⑥-|
⑦⑧口① |⑦-⑧-|
73
①口②口 |①-②-|
③口④口 |③-④-|
⑤口⑥口 |⑤-⑥-|
⑦口⑧口 |⑦-⑧-|
74
①②口口 |①-②-|
③④口口 |③-④-|
⑤⑥口口 |⑤-⑥-|
⑦⑧口口 |⑦-⑧-|
75
①口②口 |①-②-|
③口④口 |③-④-|
⑤口⑥口 |⑤-⑥-|
口口口⑤ |----|
76
∨口②① |①-②-|
┃口④③ |③-④-|
┃口⑥⑤ |⑤-⑥-|
①口⑧⑦ |⑦-⑧-|
77
口②口① |①-②-|
口④口③ |③-④-|
口⑥口⑤ |⑤-⑥-|
口⑧口⑦ |⑦-⑧-|
78
口口②① |①-②-|
口口④③ |③-④-|
口口⑥⑤ |⑤-⑥-|
口口⑧⑦ |⑦-⑧-|
79
口②口① |①-②-|
口④口③ |③-④-|
口⑥口⑤ |⑤-⑥-|
⑤口口口 |----|
80
⑥②④口 |①-②-|
①③①③ |--③-|
口⑤口⑤ |④---|
⑥②④口 |⑤-⑥-|
81
口④口② |--①-|
③⑤③⑤ |②---|
①口①口 |③-④-|
口④口② |--⑤-|
82
②口口④ |①-②-|
⑥口口⑧ |③-④-|
⑤口口⑦ |⑤-⑥-|
①口口③ |⑦-⑧-|
83
⑨②④⑧ |①-②-|
口⑤⑫口 |③-④-|
口⑪⑥口 |⑤⑥⑦⑧|
⑦①③⑩ |⑨⑩⑪⑫|
84
口⑤口口 |①---|
①⑤口③ |②-③-|
①口口③ |--④-|
口②④口 |⑤---|
85
口口②② |①-②-|
口口⑥口 |--③-|
④③⑤⑥ |④-⑤-|
①④口口 |⑥---|
86
③②④④ |①-②-|
③口口④ |--③-|
口③⑤⑤ |--④-|
①口⑤⑤ |--⑤-|
87
⑤①⑨口 |----|
⑥②⑩口 |①②③④|
⑦③⑪口 |⑤⑥⑦⑧|
⑧④⑫口 |⑨⑩⑪⑫|
88
口②⑤① |①---|
口口口口 |②---|
④口口口 |③---|
口口口③ |④-⑤-|
89
口口口④ |----|
口①口口 |--①-|
口②口口 |②--③|
口口口③ |--④-|
90
口①②口 |①---|
①口口② |--②-|
口⑤口口 |--③-|
③口④口 |④-⑤-|
91
①口口② |----|
口①②⑤ |①---|
④口口口 |②-③-|
口口口③ |④-⑤-|
92
④①①口 |①---|
口⑤口口 |②-③-|
口口⑤口 |--④-|
②③口⑤ |--⑤-|
93
口③口口 |----|
③口口口 |①---|
①①口② |②---|
口口②口 |③---|
94
口口口① |①---|
口口①口 |----|
口口口口
①━━<

②口⑤口
口②口口
②━━< |②-③-|
②口③④ |④-⑤-|
95
口口口口 |①---|
①━━<
①口口口
口口口口

④━━<
④口②③ |②-③-|
口口④⑤ |④-⑤-|
口口⑥⑦ |⑥-⑦-|
96
①口⑤① |①---|
口口口口 |②---|
④②③口 |③---|
口口口口 |④-⑤-|
97
口⑤口口 |----|
口①④口 |--①-|
口口口口 |②-③-|
口②③口 |④-⑤-|
98
④⑥⑥① |①---|
④③口① |②-③-|
①⑤②④ |④-⑤-|
①⑥⑥④ |--⑥-|
99
⑤口口口 |--①-|
口④②口 |②-③-|
⑤口③口 |④---|
①口口口 |⑤---|
100
口④⑤① |①---|
④口③⑤ |②-③-|
口②口① |--④-|
口口口口 |--⑤-|
101
口口口口 |----|
口口口口 |①---|
①②③口 |②---|
口①②③ |③---|
102
①④⑧⑤ |①-②-|
③②⑥⑦ |③-④-|
口口口口 |⑤-⑥-|
口口口口 |⑦-⑧-|
103
口口口口 |①-②-|
口口口口 |③-④-|
①④⑧⑤ |⑤-⑥-|
③②⑥⑦ |⑦-⑧-|
104
①③⑦⑤ |①-②-|
口口口口 |③-④-|
②④⑧⑥ |⑤-⑥-|
口口口口 |⑦-⑧-|
105
口口口口 |①-②-|
⑤③④⑥ |③-④-|
⑦⑧口口 |⑤-⑥-|
①口口② |⑦-⑧-|
106
口⑤口② |①-②-|
⑤⑦④口 |③-④-|
口口⑦① |⑤-⑥-|
⑥⑥③口 |--⑦-|
107
口⑤口① |--①-|
⑤口③口 |②-③-|
④④口口 |④-⑤-|
口口②口 |----|
108
⑦口④口 |①-②-|
⑥⑤口② |③-④-|
⑤⑥③口 |⑤-⑥-|
口⑦口① |--⑦-|
109
⑦③口① |--①-|
口口口⑥ |②-③-|
⑤口②口 |④-⑤-|
③口①④ |⑥-⑦-|
110
口⑧①口 |①---|
口⑥⑦口 |----|
口④⑤口 |②③④⑤|
口②③口 |⑥⑦⑧-|
111
②口①⑤ |----①-|
④口⑤① |--②---|
②口④③ |③---④-|
口口口③ |--⑤---|
112
④③②⑥ |①---②-|
⑥⑤⑥③ |--③---|
⑥④⑤⑤ |④---⑤-|
②①①④ |--⑥---|

BPM: 200
113
口∨∨② |①---|
口┃┃③ |----|
口┃┃④ |----|
口①①口 |-②③④|
114
②口口口 |①---|
③口口口 |----|
④口口口 |----|
口口口① |-②③④|
115
口口口口 |①---|
口口口口 |----|
口口口口 |----|
①口口口 |----|
116
口口口口 |----|
口口口口 |----|
口口口口 |----|
口口口口 |----|
117
口口口口 |①---|
口口口口 |----|
口口口口 |----|
口①①口 |----|
最終更新:2020年01月04日 13:55