アットウィキロゴ
Roll the Dice
lapix

EXTREME

Level: 10.6
BPM: 165
Notes(hold): 1033(113)

1
口口口口 |----|
口口口口 |----|
口口口口 |----|
口口口口 |----|
2
口⑩⑩⑤ |①②-③|
③⑧⑥口 |④-⑤⑥|
⑦④⑨① |⑦⑧⑨-|
⑪⑫②口 |⑩-⑪⑫|
3
口口口口 |①---|
①口口① |----|
口口口口 |----|
口口口口 |----|
4
口①口口 |①---|
口口口口 |----|
口口口口 |----|
口口①口 |----|
5
口口口口 |①-②-|
口①①口 |----|
口②②口 |----|
口口口口 |----|
6
②口口① |①---|
口口口口 |----|
口口口口 |②---|
①口口③ |③---|
7
⑦⑪⑤① |①②③④|
⑨②③① |⑤-⑥-|
④②③⑩ |⑦⑧⑨⑩|
④⑥⑫⑧ |⑪-⑫-|
8
⑦⑪⑤① |①②③④|
⑨②③① |⑤-⑥-|
④②③⑩ |⑦⑧⑨⑩|
④⑥⑫⑧ |⑪-⑫-|
9
⑥口口② |①②③④|
口③口口 |⑤-⑥-|
①口④口
⑤口口口

口口⑨⑫
⑧口口口
口⑩口⑦ |⑦⑧⑨⑩|
口口口⑪ |⑪-⑫-|
10
口⑥⑥口 |①②③④|
口④口① |⑤-⑥-|
②口③口
口⑤⑤口

⑩口口口
⑦口⑨口
口⑧⑫⑪ |⑦⑧⑨-|
口口口口 |⑩-⑪⑫|
11
口口②① |①-②③|
口③口⑤ |④-⑤-|
口口口口
①④口口

⑨⑥口⑩
⑦口⑪口
口⑧口口 |⑥⑦⑧-|
口口⑥⑨ |⑨-⑩⑪|
12
⑤⑥②口 |①--②|
口口口口 |③-④-|
⑦④⑧① |⑤-⑥-|
①③⑤⑦ |⑦-⑧-|
13
口口②① |①-②③|
口③口⑤ |④-⑤-|
口口口口
①④口口

⑨⑥口⑩
⑦口⑪口
口⑧口口 |⑥⑦⑧-|
口口⑥⑨ |⑨-⑩⑪|
14
⑦⑨②口 |①--②|
⑩⑥口⑧ |③-④-|
口④⑤① |⑤⑥⑦-|
①③⑤⑧ |⑧-⑨⑩|
15
口⑩①口 |①-②③|
口⑦④口 |④-⑤⑥|
②⑤⑧⑪ |⑦-⑧⑨|
③⑥⑨⑫ |⑩-⑪⑫|
16
口口①口 |①-②③|
口口④口 |④-⑤⑥|
②⑤口口
③⑥口口

⑩⑪⑫⑬
口⑦口口
口口⑧口 |⑦-⑧⑨|
口口⑨口 |⑩⑪⑫⑬|
17
口口口口 |①-②-|
③口②④ |③-④-|
③口口④
①口口口

⑩口⑧⑩
口⑦口口
口口⑥口 |⑤⑥⑦⑧|
⑨⑤口⑨ |⑨-⑩-|
18
口③口口 |①-②-|
③口②④ |③-④-|
口①④②
口口①口

口口⑥⑥
口⑤口口
口口口口 |⑤---|
口⑤⑥⑥ |⑥---|
19
∨①口口 |①---|
口∧①口 |②---|
口①口口 |③---|
①∧∧口 |④---|

口口口口
①口口<
①口<口
口口口口

口②口口
②口②口
②②口口
②口口口

口口口口
口口口口
口口口口
>③③<

口口口口
口口口口
口口口口
口④④口
20
>①>① |①---|
口①①① |②---|
>①>① |③---|
口∧∧∧ |④---|

③②口②
③②②②
口②口②
口④④口
21
③<①① |①-②-|
③<口① |③-④-|
口口∧∧ |⑤-⑥-|
口口口∧ |⑦-⑧-|

④口②②
④口口②
口口口口
口口口口

∨口口口
∨∨口口
⑦口∨∨
⑦⑦⑤⑤  

口口口口
口口口口
⑧口口口
⑧⑧⑥⑥
22
口∨∨∨ |①②③④|
口口口口 |⑤⑥--|
口①③⑤
口口口口

口口口口
口口口口
口②④⑥
口口口口

⑦口口口
⑬⑭口⑧  
⑨口口口 |⑦⑧⑨⑩|
⑪⑫口⑩ |⑪⑫⑬⑭|
23
口①口① |①---|
口口①口 |②---|
口∧口∧ |③---|
口口∧口 |④---|

>口①口
口口口口
>口①口
口口口口

口②②②
口口②口
口口②口
口口口口

口口口口
口口口∨
口口口③
口口③<

口口口口
口口口口
口口口④
口口④口
24
①∨<口 |①---|
①①<口 |②---|
①<①口 |③---|
>①∧口 |④---|

②口口口
②②口口
②口②口
口②口口

口口④④
口口口口
口口口口
口口③③
25
>①口口 |①-②-|
①口口∨ |③-④-|
∧口口③ |⑤⑥⑦⑧|
口口③< |⑨⑩⑪⑫|

口②口口
②口口口
口口口④
口口④口

口口口⑪
口∨⑨∧
∨⑦∧口
⑤口口口

口口口⑫
口口⑩口
口⑧口口
⑥口口口
26
①口口口 |①②-③|
⑤②口口 |④-⑤⑥|
⑥口口③
口口④口

⑧⑧⑦口
口口口口
口口⑦口 |⑦---|
⑧⑧口口 |⑧---|
27
>口口① |①---|
>口口① |②---|
>口口① |③---|
口口口口 |④---|

口口口口
口口∨口
口①<口
口口①口

口口口②
口口口②
口②口②
口口②口

>③③<
口口口口
口口口口
口口口口

口④④口
口口口口
口口口口
口口口口
28
口口口口 |①---|
>①①< |②---|
>①口口
>①①<

口口口口
口②②口
口②口口
口②②口

③口④③
⑤口口口
口口⑥口 |③---|
口口口口 |④⑤⑥-|
29
口口口口 |①---|
口口①①
口口口口
口口∧∧

③③口口
口口②② |②---|
②口口口 |③---|
②口④④ |④---|
30
∨∨∨口 |①②③④|
口口口口 |⑤⑥--|
⑤③①口
口口口口

口口口口
口口口口
⑥④②口
口口口口

⑩⑨⑧⑦
口口口口
口口口口 |⑦⑧⑨⑩|
⑭⑬⑫⑪ |⑪⑫⑬⑭|
31
口口口口 |①-②-|
口②口口 |③-④-|
>口口① |⑤-⑥-|
口口口口 |⑦-⑧-|

口口口口
③口口<
口口④口
口口口口

>口口⑤
口口口口
口口口口
口⑥口口

口口⑧口
口口口口
口口口口
⑦口口<

口口口⑥
④口口口
口口口②
⑧口口口
32
口③<口 |①---|
③<口口 |②---|
口口>① |③---|
口>①口 |④---|

口④口口
④口口口
口口口②
口口②口
33
②⑫⑪① |①-②-|
⑥②①⑤ |③-④-|
⑩④③⑨ |⑤⑥⑦⑧|
④⑧⑦③ |⑨⑩⑪⑫|
34
⑧⑬⑬① |①②③④|
⑫⑦②⑪ |⑤⑥⑦⑧|
⑩③⑥⑨ |⑨⑩⑪⑫|
④⑬⑬⑤ |⑬---|
35
口口口∨ |①-②-|
口②④口 |③-④-|
口口口口 |⑤-⑥-|
③口<① |⑦-⑧-|

⑤>口⑦
口口口口
∧⑧⑥口
口口口口

⑦口口口
口口口口
口口口口
⑤口口③
36
口口口① |①②③④|
①②③④ |⑤⑥⑦⑧|
口口口⑤
口⑧⑦⑥

⑯⑨⑩口
⑮口口口
⑭⑪⑫口 |⑨⑩⑪⑫|
⑬口口口 |⑬⑭⑮⑯|
37
⑯⑥⑨⑤ |①②③④|
⑮②①⑩ |⑤⑥⑦⑧|
⑭⑧⑪⑦ |⑨⑩⑪⑫|
⑬④③⑫ |⑬⑭⑮⑯|
38
口②口① |①②③④|
口⑤口⑥ |⑤⑥⑦⑧|
口④口③
口⑦口⑧

⑯⑮⑭⑬
⑫口口口
⑩口⑪口 |⑨⑩⑪⑫|
口口⑨口 |⑬⑭⑮⑯|
39
∨口口口 |①-②-|
口④②口 |③-④-|
口口口口 |⑤-⑥-|
①>口③ |⑦-⑧-|

⑦口<⑤
口口口口
口⑥⑧∧
口口口口

口口口⑦
口口口口
口口口口
③口口⑤
40
①口口口 |①②③④|
④③②① |⑤⑥⑦⑧|
⑤口口口
⑥⑦⑧口

口⑩⑨⑯
口口口⑮
口⑫⑪⑭ |⑨⑩⑪⑫|
口口口⑬ |⑬⑭⑮⑯|
41
⑤⑨⑥⑯ |①②③④|
⑩①②⑮ |⑤⑥⑦⑧|
⑦⑪⑧⑭ |⑨⑩⑪⑫|
⑫③④⑬ |⑬⑭⑮⑯|
42
①口②口 |①②③④|
⑥口⑤口 |⑤⑥⑦⑧|
③口④口
⑧口⑦口

⑬⑭⑮⑯
口口口⑫
口⑪口⑩ |⑨⑩⑪⑫|
口⑨口口 |⑬⑭⑮⑯|
43
口口口口 |①-②-|
②口口口 |③④--|
①口③口
口口口④

口⑧⑦口
口⑤⑨⑤
⑦口口口 |⑤-⑥-|
⑥口⑥口 |⑦-⑧⑨|
44
②⑦口② |①-②-|
③口口⑦ |③④-⑤|
口④⑤① |⑥-⑦-|
口⑥口口

口口口口
口口口口
口口口口
⑧口口< |⑧-⑨-|

口口口口
口口口口
口口口口
⑨口口口
45
口口②口 |①-②③|
口③口口 |④-⑤-|
④⑤⑤①
口口口①

⑧⑧⑨⑨
⑥口口⑦
口口口口 |⑥-⑦-|
⑧⑧⑨⑨ |⑧--⑨|
46
>口口⑤ |--①-|
③②①口 |-②--|
①口口② |③-④-|
口④口口 |⑤-⑥-|

口口口⑥
口口口口
口口口口
口口口口
47
口⑦⑧口 |①-②-|
⑤⑨⑤② |③④--|
口③口⑦ |⑤-⑥-|
④⑥①⑥ |⑦-⑧⑨|
48
②口⑦② |①-②-|
⑦口口③ |③④-⑤|
①⑤④口 |⑥-⑦-|
口口⑥口

口口口口
口口口口
口口口口
>口口⑧ |⑧-⑨-|

口口口口
口口口口
口口口口
口口口⑨
49
口②口口 |①-②③|
口口③口 |④-⑤-|
①⑤⑤④
①口口口

⑨⑨⑧⑧
⑦口口⑥
口口口口 |⑥-⑦-|
⑨⑨⑧⑧ |⑧--⑨|
50
口口口口 |--①-|
④①②③ |-②--|
②④③① |③-④-|
口口口口 |----|
51
①口口① |①---|
口口口口 |----|
口口口口 |----|
口口口口 |----|
52
口口口口 |①---|
口②②口 |----|
口口口口 |②---|
口①①口 |----|
53
②口口① |①---|
口口口口 |----|
②口口① |②---|
口口口口 |----|
54
口口口口 |①---|
口②②口 |----|
口口口口 |②---|
口①①口 |----|
55
⑨⑥①④ |①-②-③-|
②⑨④⑦ |④-⑤-|
口⑧③口 |⑥-⑦-⑧-|
⑩口口⑤ |⑨-⑩-|
56
⑨⑨④④ |①-②-③-|
口⑥①口 |④-⑤-|
②口口⑦ |⑥-⑦-⑧-|
⑩⑧③⑤ |⑨-⑩-|
57
⑫⑨口⑥ |①②③④|
②口①⑧ |⑤-⑥-|
④口③⑩ |⑦⑧⑨⑩|
⑪⑦口⑤ |⑪-⑫-|
58
口⑥⑥口 |①②③④|
口③④口 |⑤-⑥-|
口①②口
口⑤⑤口

⑩口口口
⑧口口⑦
⑪⑫⑬⑭ |⑦⑧⑨⑩|
口口口⑨ |⑪⑫⑬⑭|
59
口口②① |①-②③|
口③口⑤ |④-⑤-|
口口口口
①④口口

⑨⑥口⑩
⑦口⑪口
口⑧口口 |⑥⑦⑧-|
口口⑥⑨ |⑨-⑩⑪|
60
⑤⑥②口 |①--②|
口口口口 |③-④-|
⑦④⑧① |⑤-⑥-|
①③⑤⑦ |⑦-⑧-|
61
口口②① |①-②③|
口③口⑤ |④-⑤-|
口口口口
①④口口

⑨⑥口⑩
⑦口⑪口
口⑧口口 |⑥⑦⑧-|
口口⑥⑨ |⑨-⑩⑪|
62
⑦⑨②口 |①--②|
⑩⑥口⑧ |③-④-|
口④⑤① |⑤⑥⑦-|
①③⑤⑧ |⑧-⑨⑩|
63
口⑩①口 |①-②③|
口⑦④口 |④-⑤⑥|
②⑤⑧⑪ |⑦-⑧⑨|
③⑥⑨⑫ |⑩-⑪⑫|
64
①口口② |①-②-|
①③④② |③-④-|
口③④口
口口口口

口⑤⑥口
⑦口口⑧
⑤口口⑥ |⑤-⑥-|
口⑦⑧口 |⑦-⑧-|
65
①⑤口⑥ |①②③④|
口②口口 |⑤⑥⑦⑧|
口⑦③⑧
口口口④

⑬口⑩口
⑨口⑭⑫
⑮口口口 |⑨⑩⑪⑫|
口⑪⑯口 |⑬⑭⑮⑯|
66
口口口② |①---|
口①口口 |②---|
口②①口
口口口①

③口口口
口④④口
口口口口 |③---|
口④④口 |④---|
67
口口口② |①-②③|
①口口口
┃口③口
∧口口口

④口⑤∨
口⑨口┃ |-④⑤⑥|
口⑥口⑦ |⑦-⑧⑨|
⑧口口口

口口口口
口口⑪口
口口口口
口⑫口⑩ |-⑩⑪⑫|

口口口口
③口口口
口口口⑨
口口口口
68
口①━< |①-②③|
口口口口
口口口口
口口口口

⑧口⑤②
⑥口⑨口 |-④⑤⑥|
口③④口 |⑦-⑧⑨|
>━⑦口

口口口口
口⑪口口
口口口⑫
口⑩口口 |-⑩⑪⑫|

口③口口
口口口口
口口口口
口口⑨口
69
∨口口口 |①-②③|
┃口口口
①③口口
口口口②

⑧⑥口④
口⑨口⑦ |-④⑤⑥|
口口⑤┃ |⑦-⑧⑨|
口口口∧

口口口口
⑪口⑩口
口口口口
⑫口口口 |-⑩⑪⑫|

口口口口
口口口⑨
③口口口
口口口口
70
口⑥口④ |①-②③|
口口口口 |-④⑤⑥|
口③⑤②
口①━<

>━⑦口
⑩⑨⑪口
⑧口口口 |⑦-⑧⑨|
⑫口口口 |-⑩⑪⑫|

口口⑨口
口口口口
口口口口
口③口口
71
②口口口 |①-②③|
口口口①
口③口┃
口口口∧

∨⑤口④
┃⑪⑨口 |-④⑤⑥|
⑦口⑥口 |⑦-⑧⑨|
⑩口⑫⑧ |-⑩⑪⑫|

口口口口
口口口③
⑨口口口
口口口口
72
>━①口 |①-②③|
口口口口
口口口口
口口口口

②⑥口⑧
口⑨口⑤ |-④⑤⑥|
口④③口 |⑦-⑧⑨|
口⑦━<

口口口口
口口⑫口
⑪口口口
口口⑩口 |-⑩⑪⑫|

口口③口
口口口口
口口口口
口⑨口口
73
>━①口 |①-②③|
②口口口
口③口口
口口口口

口④口⑥
口⑦━< |-④⑤⑥|
口口⑤⑧ |⑦-⑧⑨|
口口⑨口

口口口口
⑫口⑩口
口口口口
口⑪口口 |-⑩⑪⑫|

口口③口
口⑨口口
口口口口
口口口口
74
①口口口 |①--②|
口口口① |--③-|
③口②③
②口口口

口口④口
⑤⑥⑦⑧
口④口口 |-④--|
口口口口 |⑤⑥⑦⑧|
75
口②口口 |①-②③|
口口口口
口口③口
①━<口

④口⑤∨
口⑧口┃ |-④⑤⑥|
⑥口口⑦ |⑦-⑧⑨|
口口⑨口

口口口⑫
口口⑪口
口⑩口口
口口口口 |-⑩⑪⑫|

口口口口
口口口口
口口口⑨
③口口口
76
口③口口 |①-②③|
①口口②
┃口口口
∧口口口

⑥口口口
口⑤口口 |-④⑤⑥|
口口④口 |⑦-⑧⑨|
口>━⑦

口口⑧口
口口⑪口
口⑩口⑫
口⑨口口 |-⑩⑪⑫|

口口口口
③口口口
口口口口
口口口⑨
77
∨②口口 |①-②③|
┃口口口
①口③口
口口口口

口口口口
⑧④口⑦ |-④⑤⑥|
口口口┃ |⑦-⑧⑨|
⑥⑨⑤∧

口口口口
口口⑫口
口⑩口⑪
口口口口 |-⑩⑪⑫|

口口口口
口口口⑨
③口口口
口口口口
78
①━<口 |①-②③|
口口口口
口口③口
口口口②

口⑧④⑦
口⑤口┃ |-④⑤⑥|
⑥口口∧ |⑦-⑧⑨|
口⑨口口

口口口口
口口口⑩
口口⑫口
口口口⑪ |-⑩⑪⑫|

③口口⑨
口口口口
口口口口
口口口口
79
口口②口 |①-②③|
①口口口
┃③口口
∧口口口

口⑥口口
口口⑤口 |-④⑤⑥|
口口口④ |⑦-⑧⑨|
>━⑦口

口口口⑩
口⑪口⑧
口口⑫口
⑨口口口 |-⑩⑪⑫|

口口口口
③口口口
口口口口
口口⑨口
80
∨⑥口口 |①-②③|
┃口③口 |-④⑤⑥|
①④口⑤
口口口②

>━⑦口
口⑧口口
口口⑪口 |⑦-⑧⑨|
⑨⑩口⑫ |-⑩⑪⑫|

口口⑨口
口口口口
③口口口
口口口口
81
口③口口 |①-②③|
①━<口
口口口口
口口②口

口口口④
口口⑤口 |-④⑤⑥|
口⑥口口
口口口口

口口⑨口
口>━⑦
口口口口 |⑦-⑧⑨|
口⑧口口

⑩口口口
口⑪口口
口口⑫口
口口口口 |-⑩⑪⑫|

口口口口
③口口⑨
口口口口
口口口口
82
口口口口 |①-②③|
①口口口 |-④⑤⑥|
⑥口口③
④口②⑤

⑩⑨⑧⑦
⑭⑬⑫⑪
口⑮⑮口 |⑦⑧⑨⑩⑪⑫⑬⑭|
口口口口 |⑮---|
83
口口口口 |①---|
口口口口 |----|
口口口口 |----|
口①①口 |----|
最終更新:2021年02月06日 04:26