アットウィキロゴ
Initial song
40mP

BASIC

Level: 1
BPM: 90
Notes: 73

1
口口口口 |----|
口口口口 |----|
口口口口 |----|
口口口口 |----|
2
口口口口 |----|
口口口口 |----|
口口口口 |----|
口口口口 |----|
3
口口口口 |----|
口口口口 |----|
口口口口 |----|
口口口口 |----|
4
口口口口 |----|
口口口口 |----|
口口口口 |----|
口口口口 |----|
5
口口口口 |----|
口口口口 |----|
口口口口 |----|
口口口口 |----|
6
口口口口 |①---|
①口口口 |----|
口口口口 |----|
口口口口 |----|
7
口口口口 |①---|
口①口口 |----|
口口口口 |----|
口口口口 |----|
8
口口口口 |①---|
口口①口 |----|
口口口口 |----|
口口口口 |----|
9
口口口口 |①---|
口口口① |----|
口口口口 |----|
口口口口 |----|
10
口口口口 |①---|
口口口口 |----|
口口口① |----|
口口口口 |----|
11
口口口口 |①---|
口口口口 |----|
口口①口 |----|
口口口口 |----|
12
口口口口 |①---|
口口口口 |----|
口①口口 |----|
口口口口 |----|
13
口口口口 |①---|
口①口口 |----|
口口口口 |----|
口口口口 |----|
14
口口口口 |①---|
口口①口 |----|
口口口口 |----|
口口口口 |----|
15
口口口口 |①---|
口口口口 |----|
口①口口 |----|
口口口口 |----|
16
口口口口 |①---|
口口口口 |----|
口口①口 |----|
口口口口 |----|
17
口口口口 |①---|
口①口口 |----|
口口口口 |----|
口口口口 |----|
18
口口口口 |①---|
口口①口 |----|
口口口口 |----|
口口口口 |----|
19
口口口口 |①---|
口口口口 |----|
口①口口 |----|
口口口口 |----|
20
口口口口 |①---|
口口口口 |----|
口口①口 |----|
口口口口 |----|
21
口口口口 |①---|
口口口口 |----|
口口②① |②---|
口口口口 |----|
22
口口口口 |①---|
口口口口 |----|
②①口口 |②---|
口口口口 |----|
23
口口口口 |①---|
①②口口 |----|
口口口口 |②---|
口口口口 |----|
24
口口口口 |①---|
口口①② |----|
口口口口 |②---|
口口口口 |----|
25
口口口③ |①---|
口②②口 |----|
口①①口 |②---|
口口口口 |③---|
26
③②①口 |①---|
④口口口 |②---|
口口口口 |③---|
口口口口 |④---|
27
口口口口 |①---|
口①②③ |②---|
口口口④ |③---|
口口口口 |④---|
28
口口口口 |①---|
③②口口 |②---|
④口①口 |③---|
口口口口 |④---|
29
口口口口 |①---|
口口口④ |②---|
口①②③ |③---|
口口口口 |④---|
30
口口口口 |①---|
③②①口 |②---|
④口口口 |③---|
口口口口 |④---|
31
口口口口 |①---|
口口口口 |②---|
口①②③ |③---|
口口口④ |④---|
32
口口口口 |①---|
口口口口 |----|
口口③② |②---|
口口①口 |③---|
33
口口口口 |①---|
③④口口 |②---|
②①口口 |③---|
口口口口 |④---|
34
口①①口 |①---|
口口②口 |②---|
口口③口 |③---|
口口④口 |④---|
35
口口口口 |①---|
口③口口 |②---|
口②口口 |③---|
口①口口 |----|
36
口口①口 |①---|
口②口口 |②---|
口口口口
口口口口

口口口口
口④③口
口口口口 |③---|
口口口口 |④---|
37
口口口口 |①---|
口口口口 |----|
口①①口 |----|
口口口口 |----|

accuracy: 99.5%
最終更新:2023年03月11日 15:48