アットウィキロゴ
Initial song
40mP

ADVANCED

Level: 3
BPM: 90
Notes: 158

1
①口口口 |----|
口口口口 |----|
口口口口 |----|
口口口口 |①---|
2
口①②③ |①---|
口口口④ |②---|
口口口口 |③---|
口口口口 |④---|
3
口口口口 |①---|
③②①口 |②---|
④口口口 |③---|
口口口口 |④---|
4
口口口口 |①---|
口口口口 |②---|
口①③② |③---|
④口口口 |④---|
5
口口口口 |①---|
口口口口 |②---|
口口口④ |③---|
口①②③ |④---|
6
口口口口 |①---|
④口口口 |②---|
③②①口 |③---|
口口口口 |④---|
7
口口口④ |①---|
口①②③ |②---|
口口口口 |③---|
口口口口 |④---|
8
②口①口 |①---|
口口口口 |②---|
口口口口
口口口口

口③④口
口口口口
口口口口 |③---|
口口口口 |④---|
9
口口口口 |①---|
口①①口 |②---|
口②②口 |----|
口口口口 |----|
10
口口口口 |①---|
①口口① |----|
②口口② |②---|
口口口口 |----|
11
口口口口 |①---|
口口口口 |②---|
口③④口 |③---|
口①②口 |④---|
12
口③口口 |①---|
口①②口 |②---|
口口口口 |③---|
口口口口 |----|
13
①②③④ |①---|
口口口口 |②---|
口口口口 |③---|
口口口口 |④---|
14
口口口口 |①---|
口③②① |②---|
口④④口 |③---|
口口口口 |④---|
15
口口口口 |①---|
①②③④ |②---|
口口口口 |③---|
口口口口 |④---|
16
口口口口 |①---|
口口口口 |②---|
口③②① |③---|
口口口口 |----|
17
④③②① |①---|
口口口口 |②---|
口口口口 |③---|
口口口口 |④---|
18
口口口口 |①---|
①②③口 |②---|
口④④口 |③---|
口口口口 |④---|
19
口口口口 |①---|
④③②① |②---|
口口口口 |③---|
口口口口 |④---|
20
口口口口 |①---|
口口口口 |②---|
①②③口 |③---|
口口口口 |----|
21
口口口④ |①---|
口口口③ |②---|
口口口② |③---|
口①①口 |④---|
22
口②①口 |①---|
口口③口 |②---|
口④口口 |③---|
口口口口 |④---|
23
④口口口 |①---|
③口口口 |②---|
②口口口 |③---|
口①①口 |④---|
24
口口口口 |①---|
口①①口 |----|
口②②口 |②---|
口口口口 |----|
25
口口口口 |①---|
①口口① |----|
②口口② |②---|
口口③口 |③---|
26
口口口口 |①---|
③③①① |②---|
口口④口 |③---|
口②口口 |④---|
27
③③①① |①---|
口口④口 |②---|
口②口口 |③---|
口口口口 |④---|
28
口口口口 |①---|
口口口口 |②---|
②①口口
口口口口

口口口口
口口口口
口③④口 |③---|
口口口口 |④---|
29
口口口口 |①---|
口③②① |②---|
口口口口 |③---|
口口④口 |④---|
30
口口口口 |①---|
③③①① |②---|
口口④口 |③---|
口②口口 |④---|
31
③③①① |①---|
口口④口 |②---|
口②口口 |③---|
口口口口 |④---|
32
口口口口 |①---|
口口③② |----|
口①口口 |②---|
口口口口 |③---|
33
口③④口 |①---|
②①口口 |②---|
口口口口 |③---|
口口口口 |④---|
34
口④③② |①---|
口①①口 |②---|
口口口口 |③---|
口口口口 |④---|
35
口口口口 |①---|
①②③口 |②---|
口口口口 |③---|
口口口口 |----|
36
口①①口 |①---|
口②②口 |②---|
口③③口 |③---|
口④④口 |④---|
37
口口口口 |①---|
①口口① |----|
①口口① |----|
口口口口 |----|

accuracy: 99.5%
最終更新:2023年03月11日 15:54