アットウィキロゴ
Initial song
40mP

EXTREME

Level: 6
BPM: 90
Notes: 295

1
口口口口 |----|
①①口口 |----|
口口口口 |----|
口口口口 |①---|
2
口口口① |①---|
口口②口 |②---|
口口口口
口口口口

口口口口
口口④④
口口口③ |③---|
口口口口 |④---|
3
①口口口 |①---|
口②口口 |②---|
口口口口
口口口口

口口口口
④④口口
③口口口 |③---|
口口口口 |④---|
4
口口口口 |①---|
口口②② |②---|
①①口口
口口口口

口口口口
口④④口
口口③③ |③---|
口口口口 |④---|
5
口口口口 |①---|
口②口口 |②---|
口①①口
口口口口

口口③口
口口口口
口④④口 |③---|
口口口口 |④---|
6
①口口① |①---|
口②③口 |②---|
口④④口 |③---|
口口口口 |④---|
7
①口口① |①---|
口②口口 |②---|
口口口口
口口口口

口口口口
④④③口
口口口口 |③---|
口口口口 |④---|
8
口口口口 |①---|
口口②② |②---|
①①③③ |③-④-|
口④⑤口 |⑤---|
9
口口口口 |①-②-|
③口口⑥ |③---|
②口口⑤ |④-⑤-|
①口口④ |⑥---|
10
口口口口 |①---|
口口口口 |----|
口①①口 |②---|
口②②口 |----|
11
④口口口 |①---|
③口口口 |②---|
②口口口 |③---|
①口口口 |④---|
12
口口口口 |①---|
口口口③ |②---|
口口口② |③---|
口口口① |----|
13
口口③② |①----②|
④⑤口口 |③-④⑤-⑥|
口口口⑥
口①①口

口⑧⑨口
口口口口
口口⑦⑩ |⑦--⑧-⑨|
口口口口 |-----⑩|
14
口③④⑤ |①--②-③|
口口口口 |--④--⑤|
②口①口
口口口口

口口口口
口口口口
口⑥⑥口 |----|
口口口口 |⑥---|
15
②③口口 |①----②|
口口⑤④ |③-④⑤-⑥|
⑥口口口
口①①口

口⑨⑧口
口口口口
⑩⑦口口 |⑦--⑧-⑨|
口口口口 |-----⑩|
16
⑤④③口 |①--②-③|
口口口口 |--④--⑤|
口①口②
口口口口

口口口口
口口口口
口⑦⑦口 |----|
⑥口口⑥ |⑥-⑦---|
17
口口③② |①----②|
④⑤口口 |③-④⑤-⑥|
口口口⑥
口①①口

口⑧⑨口
口口口口
口口⑦⑩ |⑦--⑧-⑨|
口口口口 |-----⑩|
18
口③④⑤ |①--②-③|
口口口口 |--④--⑤|
②口①口
口口口口

口口口口
口口口口
口⑥⑥口 |----|
口口口口 |⑥---|
19
②③口口 |①----②|
口口⑤④ |③-④⑤-⑥|
⑥口口口
口①①口

口⑨⑧口
口口口口
⑩⑦口口 |⑦--⑧-⑨|
口口口口 |-----⑩|
20
⑤口③口 |①--②-③|
④口口口 |---④-⑤|
口①⑦② |----|
⑥口口⑥ |⑥-⑦-|
21
口⑧⑨① |①--②--|
口②⑦⑥ |③-④⑤-⑥|
④⑤⑩口 |⑦--⑧-⑨|
口口③口 |-----⑩|
22
⑤口③② |①--②-③|
④口口口 |--④--⑤|
口①口口
口口口口

口口口口
口⑥⑥口
口⑦⑦口 |⑥---|
口口口口 |⑦---|
23
⑧⑦⑥口 |----|
④⑤口口 |①-②③-④|
口口③② |⑤--⑥-⑦|
口①口口 |-----⑧|
24
口口口口 |①---|
口①①口 |--②-|
口口②口 |③---|
口③④口 |-----④|
25
口⑥口⑤ |①---|
口⑧口⑦ |-----②|
④③②口 |③----④|
口①口口 |⑤-⑥⑦-⑧|
26
口口口口 |①----②|
③口④口 |③-④⑤-⑥|
⑤口⑥①
口口口②

口⑩口⑨
⑧⑫口⑪
口口口口 |⑦----⑧|
⑦口口口 |⑨-⑩⑪-⑫|
27
③口④② |①----②|
⑤口⑥口 |③-④⑤-⑥|
口口口①
口口口口

口口口口
口口口口
⑦⑦⑧⑧ |⑦-⑧-|
⑨⑨⑩⑩ |⑨-⑩-|
28
口口口口 |①----②|
⑥①①⑤ |③-④⑤-⑥|
④口口③
口②口口

口口⑩⑨
口口口口
口口口口 |⑦-⑧-|
口⑧⑦口 |⑨-⑩-|
29
②①口口 |①--②--|
口⑤③口 |③--④-⑤|
口口口口
口口④口

口⑧口⑦
口⑩口⑨
⑥口口口 |-----⑥|
口口口口 |⑦-⑧⑨-⑩|
30
口口口口 |①----②|
③口④口 |③-④⑤-⑥|
⑤口⑥①
口口口②

口⑩口⑨
⑧⑫口⑪
口口口口 |⑦----⑧|
⑦口口口 |⑨-⑩⑪-⑫|
31
③口④② |①----②|
⑤口⑥口 |③-④⑤-⑥|
口口口①
口口口口

口口口口
口口口口
⑦⑦⑧⑧ |⑦-⑧-|
⑨⑨⑩⑩ |⑨-⑩-|
32
④④口口 |①---|
口①③口 |--②③-④|
口口口口
口②口口

口口口口
口口口口
口⑥⑤口 |---⑤-⑥|
口⑧⑦口 |---⑦-⑧|
33
口口口③ |---①-②|
口②①口 |---③--|
口口口口
口口口口

口口口口
④口⑦口
口口口⑤ |④-⑤-|
⑥口口口 |⑥-⑦-|
34
③口④口 |①---|
⑤口口口 |②-③④-⑤|
口①②口
口口口口

口口口口
口口⑥口
口⑦⑧口 |⑥-⑦-|
口⑨口口 |⑧-⑨-|
35
口口⑤口 |①--②--|
口口口口 |③--④-⑤|
②④口③
口口①口

口口口口
口口口口
口⑦口口 |----|
⑥口口⑥ |---⑥-⑦|
36
②口口③ |①-②-|
④口口⑤ |③-④-|
⑥口①口 |⑤-⑥-|
口口口口

口口口口
⑨口口⑨
口口口⑦
口⑧⑧口 |⑦--⑧-⑨|

accuracy: 99.5%
最終更新:2023年03月11日 16:09