アットウィキロゴ
快晴
orangestar

EXTREME

Level: 9.2
BPM: 172
Notes(hold): 701(27)

1
口口口口 |----|
口口口口 |----|
口口口口 |----|
口口口口 |----|
2
口口①口 |①-②-|
口口口① |③④⑤-|
口③④⑤ |⑥-⑦-|
口②口口 |⑧⑨⑩-|

口⑥口口
⑥⑩⑨⑧
口口口口
口口⑦口
3
⑤口①口 |①-②-|
③口口⑥ |③-④-|
口口口口 |--⑤-|
②⑦口④ |⑥-⑦-|
4
口①口口 |①-②-|
①口口口 |③④⑤-|
⑤④③口 |⑥-⑦-|
口口②口 |⑧⑨⑩-|

口口⑥口
⑧⑨⑩⑥
口口口口
口⑦口口
5
口①口⑤ |①-②-|
⑥口口③ |③-④-|
口口口口 |--⑤-|
④口⑦② |⑥-⑦-|
6
口口①口 |①-②-|
口口口① |③④⑤-|
口③④⑤ |⑥-⑦-|
口②口口 |⑧⑨⑩-|

口⑥口口
⑥⑩⑨⑧
口口口口
口口⑦口
7
⑤口①口 |①-②-|
③口口⑥ |③-④-|
口口口口 |--⑤-|
②⑦口④ |⑥-⑦-|
8
口①口口 |①-②-|
①口口口 |③④⑤-|
⑤④③口 |⑥-⑦-|
口口②口 |⑧⑨⑩-|

口口⑥口
⑧⑨⑩⑥
口口口口
口⑦口口
9
①①⑪③ |①-②③|
⑧口口⑦ |④⑤⑥⑦|
⑩②口口 |⑧⑨⑩⑪|
④⑥⑤⑨ |⑫-⑬-|

⑫⑫口口
口口⑬口
口口⑬口
口口口口
10
口⑤④口 |--①-|
⑥②口③ |--②-|
口口口口 |③-④-|
口①口口 |⑤-⑥-|
11
⑤⑥⑦⑤ |①-②-|
口④③口 |③-④-|
口②①口 |⑤---|
口口口口 |⑥-⑦-|
12
口口口口 |①-②-|
口⑤⑥口 |③-④-|
②⑦⑧④ |⑤-⑥-|
口①③口 |⑦-⑧-|
13
⑤口口⑤ |①-②-|
①口口② |③-④-|
口口口口 |⑤---|
口③④⑥ |--⑥-|
14
⑦口③口 |①-②-|
⑧口④② |③-④-|
口⑥口① |⑤-⑥-|
口⑤口口 |⑦-⑧-|
15
⑤口口⑤ |①-②-|
口④②口 |③-④-|
口口口口 |⑤---|
③③①① |⑥-⑦-|

口口口口
口口口口
口⑦口口
口口⑥口
16
口①①口 |①---|
口口①口 |②---|
②口口③ |③---|
②②③③ |④-⑤-|

口口口口
④⑤⑤④
口口口口
口口口口
17
④口①① |--①-|
④口口口 |②-③-|
口③口口 |④---|
口⑤②口 |--⑤-|
18
口口⑥⑦ |①-②-|
⑤④口口 |③-④-|
口口②③ |⑤-⑥-|
①口口口 |⑦-⑧-|

口口口口
口口口口
口口口口
⑧口口口
19
⑤口口⑤ |①-②-|
④口③口 |③-④-|
②④①③ |⑤---|
口②口① |⑥-⑦-|

口口口口
口口口口
口口口口
口⑦⑥口
20
⑦⑥⑤口 |①-②-|
③口口① |③-④-|
④口口② |⑤-⑥-|
口口口⑧ |⑦-⑧-|
21
⑤口⑥⑤ |①-②-|
口③⑦④ |③-④-|
③①④② |⑤---|
①口②口 |⑥-⑦-|
22
口口口口 |①-②-|
①①口口 |③-④-|
②②⑤⑤ |⑤---|
③③④④ |⑥-⑦-|

口口⑦口
口口口⑥
口口口口
口口口口
23
①②口口 |--①-|
口③口口 |②-③-|
口④⑥口 |④---|
口口⑤⑤ |⑤-⑥-|
24
④④①① |①---|
④口口① |②-③-|
口③口口 |④---|
②②口口 |⑤-⑥-|

口口⑥⑥
口⑤口口
口口口口
口口口口
25
口口口口 |--①-|
⑤⑥③④ |②-③-|
口⑦②口 |④-⑤-|
口口①口 |⑥-⑦-|
26
口口口口 |①---|
口口口口 |----|
口口口口 |②---|
口①―< |③---|

口>―③
口口口②
――②
口②口口
27
①口口① |----|
口②口口 |----|
③口口① |①-②-|
口口口口 |③---|
28
口口④④ |①---|
口⑤口③ |②---|
口口口② |③---|
口①①口 |④-⑤-|
29
口口口口 |①---|
口口②口 |②-③-|
口③①口 |--④-|
口口口口 |⑤-⑥-|

口口④口
口口口⑤
口口⑥口
口口口口
30
∨口口口 |①---|
|口口口 |②-③-|
③口口口 |----|
①②口① |④-⑤-|

口口口口
口口口⑤
④口④|
口口口∧
31
②―<口 |----|
口①口① |①-②-|
口口口口 |----|
口口口口 |③-④-|

③>―④
口口③口
口口口口
口口口口
32
口口口① |----|
口口口口 |---①|
②口口口 |----|
口③口口 |②-③-|
33
口②口口 |①---|
③口口口 |②-③-|
口④①⑥ |④-⑤-|
口口⑤口 |⑥---|
34
口口口⑤ |①---|
③口口⑤ |②-③-|
③口④口 |----|
①②口① |④-⑤-|
35
口③口④ |--①-|
②口⑤口 |②-③-|
口①口⑥ |--④-|
口口口口 |⑤-⑥-|
36
④口口⑤ |①---|
③口④口 |②---|
②口③口 |③---|
口①①口 |④-⑤-|
37
⑥口口⑤ |①---|
③⑤口④ |②-③-|
口②口② |④---|
口①①口 |⑤-⑥-|
38
⑥⑦口口 |①---|
④口⑥③ |②-③-|
②⑤②口 |④-⑤-|
口①①口 |⑥-⑦-|
39
口口口⑥ |①-②-|
⑦③口⑤ |③-④-|
②⑥④③ |⑤---|
口①①口 |⑥-⑦-|
40
口③③口 |①---|
口∨∨口 |②---|
②⑤⑤② |③---|
④①①④ |④-⑤-|
41
口口口③ |----|
③口口口 |①-②-|
口①①④ |③---|
口②②④ |④---|
42
②④⑥口 |①-②-|
――① |③-④-|
②④⑥口 |⑤-⑥-|
①③⑤口 |⑦-⑧-|

口口口⑧
口口口⑦
口口口⑧
口口口⑦
43
④口口口 |----|
口③口口 |①---|
口口②口 |②-③-|
口①①口 |④---|
44
口①<口 |①---|
①口口口 |②---|
口口口① |③-④-|
口>①口 |⑤---|

口②∨口
口口②口
口②口口
口∧②口

⑤口口口
口④③口
口③③口
口口口口
45
⑤①③口 |①-②-|
②口口④ |③-④-|
①⑤⑤③ |⑤---|
口②④口 |⑥-⑦-|

口⑥口口
口口口口
口口口口
⑦口口口
46
口⑥④② |①-②-|
①――< |③-④-|
口⑥④② |⑤-⑥-|
口⑤③① |⑦-⑧-|

⑧口口口
⑦口口口
⑧口口口
⑦口口口
47
口口口④ |----|
口口③口 |①---|
口②口口 |②-③-|
口①①口 |④---|
48
①⑤④口 |①---|
①②④② |②-③-|
②口②口 |④-⑤-|
③口①① |⑥-⑦-|

⑦口口⑦
口口口口
口⑥口口
口口⑥口
49
口③④口 |--①-|
③口口② |②-③-|
②④⑤③ |④---|
①④⑤口 |⑤---|
50
②④⑥口 |①-②-|
――① |③-④-|
②④⑥口 |⑤-⑥-|
①③⑤口 |⑦-⑧-|

口口口⑧
口口口⑦
口口口⑧
口口口⑦
51
口口口口 |----|
―①口 |①---|
口口口口 |②-③-|
口口口口 |④---|

④口口口
口口③口
口口口口
口②口口
52
口口口口 |①---|
∨口口口 |②---|
①口①口 |③---|
口口∧口 |④-⑤-|

口口口口
口②<口
②口②口
②口口

口口口口
口③口口
③>③
口③口口

口口口口
口口④⑤
口④口④
口口④口
53
①口②① |①---|
口③口口 |②③④-|
口口④口 |--⑤-|
口口口口 |⑥-⑦-|

⑦口口⑥
口口⑦口
口⑥口口
⑤口⑤口
54
口④口口 |①---|
②口口② |②-③-|
①⑤∨③ |④--⑤|
口口⑥① |⑥---|
55
①口口口 |①---|
①口口口 |②---|
②口口口 |③---|
②②口 |④---|

口口③∨
口口口③
口③口口
口③口口

④口口
④口④④
口口口口
口口口口
56
口①口③ |①---|
口①口口 |--②-|
④口②① |③---|
③④①口 |④---|
57
⑤⑦⑥④ |①-②③|
③口口②|④⑤⑥⑦|
⑪口口⑩ |⑧⑨⑩⑪|
口⑨⑧① |⑫⑬⑭⑮|

口口口口
口⑬⑫口
口口口口
⑮口口⑭
58
④口⑤口 |①-②-|
口口口① |③-④-|
口②③口 |⑤-⑥-|
口⑥口⑦ |⑦-⑧⑨|

口口口口
口口口口
⑧⑨口口
口口口口
59
口②口口 |①-②-|
口④口⑤ |③-④-|
⑧口①口 |⑤-⑥-|
口⑥③⑦ |⑦-⑧-|
60
口口①⑥ |①-②③|
②③④口 |④-⑤-|
⑦⑨口口 |⑥-⑦-|
口⑤口⑧ |⑧-⑨-|
61
②③④口 |①-②③|
口口①口 |④-⑤-|
口口口口 |⑥⑦⑧⑨|
⑤口口口 |⑩⑪⑫⑬|

⑬口口⑧
⑦⑪⑫口
⑨口⑥口
口口口⑩
62
口口①口 |①-②-|
口口口① |③④⑤-|
口③④⑤ |⑥-⑦-|
口②口口 |⑧⑨⑩-|

口⑥口口
⑥⑩⑨⑧
口口口口
口口⑦口
63
⑤口①口 |①-②-|
③口口⑥ |③-④-|
口口口口 |--⑤-|
②⑦口④ |⑥-⑦-|
64
口①口口 |①-②-|
①口口口 |③④⑤-|
⑤④③口 |⑥-⑦-|
口口②口 |⑧⑨⑩-|

口口⑥口
⑧⑨⑩⑥
口口口口
口⑦口口
65
①①口口 |①-②③|
口口口口 |④-⑤⑥|
④③②口 |⑦-⑧⑨|
口⑤⑥⑦ |⑩⑪⑫⑬|

⑬口口⑫
⑨口⑩口
口口口⑧
⑪口口口
66
口口①口 |①-②-|
口口口① |③④⑤-|
口③④⑤ |⑥-⑦-|
口②口口 |⑧⑨⑩-|

口⑥口口
⑥⑩⑨⑧
口口口口
口口⑦口
67
口口①① |①-②-|
③口口口 |③-④-|
③口口④ |--⑤-|
②②口④ |⑥-⑦-|

⑤口口口
口口口⑥
口口口口
口⑦口口
68
口①口口 |①-②-|
①口口口 |③④⑤-|
⑤④③口 |⑥-⑦-|
口口②口 |⑧⑨⑩-|

口口⑥口
⑧⑨⑩⑥
口口口口
口⑦口口
69
①①口口 |①-②-|
口口口③ |③-④-|
④口口③ |--⑤-|
④口②② |⑥-⑦-|

口口口⑤
⑥口口口
口口口口
口口⑦口
70
口口①口 |①-②-|
口口口① |③④⑤-|
口③④⑤ |⑥-⑦-|
口②口口 |⑧⑨⑩-|

口⑥口口
⑥⑩⑨⑧
口口口口
口口⑦口
71
口口①① |①-②-|
③口口口 |③-④-|
③口口④ |--⑤-|
②②口④ |⑥-⑦-|

⑤口口口
口口口⑥
口口口口
口⑦口口
72
口①口口 |①-②-|
①口口口 |③④⑤-|
⑤④③口 |⑥-⑦-|
口口②口 |⑧⑨⑩-|

口口⑥口
⑧⑨⑩⑥
口口口口
口⑦口口
73
①⑨⑩② |①-②-③-|
⑦⑪⑫⑧ |④-⑤-⑥-|
口⑤⑥口 |⑦-⑧-⑨-|
③口口④ |⑩-⑪-⑫-|
最終更新:2019年11月11日 14:12