アットウィキロゴ
リバースユニバース
ナユタン星人

BASIC

Level: 3
BPM: 139
Notes: 336

1
口口口口 |----|
口口口口 |----|
口口口口 |----|
口口口口 |----|
2
口②①口 |①---|
口口口口 |----|
口口口口 |②---|
口口口口 |----|
3
口口口口 |①---|
口②①口 |----|
口口口口 |②---|
口口口口 |----|
4
口口口口 |①---|
口口口口 |----|
口②①口 |②---|
口口口口 |----|
5
②口口② |①---|
①口口① |----|
口口口口 |②---|
口口口口 |----|
6
口口口口 |①---|
口口①③ |②---|
口口②④ |③---|
口口口口 |④---|
7
口口口口 |①---|
③①口口 |②---|
④②口口 |③---|
口口口口 |④---|
8
口口口口 |①---|
口口口口 |----|
③口口③ |②---|
②①①② |③---|
9
①口口① |①---|
②口口② |----|
口口口口 |②---|
口口口口 |----|
10
口口口口 |①---|
口口①③ |②---|
口口②④ |③---|
口口口口 |④---|
11
口口口口 |①---|
③①口口 |②---|
④②口口 |③---|
口口口口 |④---|
12
口口口口 |①---|
口口口口 |----|
③口口③ |②---|
②①①② |③---|
13
①口口① |①---|
②口口② |----|
口口口口 |②---|
口口口口 |----|
14
口口口口 |①---|
口口③口 |②---|
口口②口 |③---|
口口①口 |----|
15
口口口口 |①---|
口③口口 |②---|
口②口口 |③---|
口①口口 |----|
16
口口口口 |①---|
口口口③ |②---|
口口口② |③---|
口口口① |----|
17
口口口口 |①---|
③口口口 |②---|
②口口口 |③---|
①口口口 |----|
18
口口③③ |①---|
口口②② |②---|
口口①① |③---|
口口口口 |----|
19
③③口口 |①---|
②②口口 |②---|
①①口口 |③---|
口口口口 |----|
20
口口口口 |①---|
口①①口 |----|
口口口口 |②---|
口②②口 |----|
21
口①①口 |①---|
口①①口 |----|
口口口口 |----|
口口口口 |----|
22
口口口口 |①---|
④口口② |②---|
口③③口 |③---|
口①①口 |④---|
23
②②①① |①---|
④④③③ |②---|
口口口口 |③---|
口口口口 |④---|
24
口口口口 |①---|
口口口口 |②---|
④口口③ |③---|
口②①口 |④---|
25
②②②② |①---|
口①①口 |----|
口①①口 |②---|
口口口口 |----|
26
口口口口 |①---|
口口①口 |②---|
④口②④ |③---|
口口③口 |④---|
27
口口口口 |①---|
口①口口 |②---|
④②口④ |③---|
口③口口 |④---|
28
口口口口 |①---|
②②①① |----|
口口口口 |②---|
口口口口 |----|
29
①口口① |①---|
②口口② |②---|
③口口③ |③---|
④口口④ |④---|
30
口口口口 |①---|
②口口④ |②---|
口③③口 |③---|
口①①口 |④---|
31
①①②② |①---|
③③④④ |②---|
口口口口 |③---|
口口口口 |④---|
32
口口口口 |①---|
口口口口 |②---|
③口口④ |③---|
口①②口 |④---|
33
②②②② |①---|
口①①口 |----|
口①①口 |②---|
口口口口 |----|
34
口口口口 |①---|
口①口口 |②---|
④②口④ |③---|
口③口口 |④---|
35
口口口口 |①---|
口口①口 |②---|
④口②④ |③---|
口口③口 |④---|
36
口口口口 |①---|
①①②② |----|
口口口口 |②---|
口口口口 |----|
37
①口口① |①---|
②口口② |②---|
③口口③ |③---|
④口口④ |④---|
38
口口口口 |①---|
口口口口 |----|
口①①口 |----|
口①①口 |----|
39
④口口④ |①---|
口③③口 |②---|
口②②口 |③---|
①口口① |④---|
40
口口口口 |①---|
口口口口 |----|
口口①口 |----|
口口口口 |----|
41
口口口口 |①---|
口口口口 |----|
口口口口 |----|
口口①口 |----|
42
口口口口 |①---|
口口口口 |----|
口①口口 |----|
口口口口 |----|
43
口口口口 |①---|
口口口口 |----|
口口口口 |----|
口①口口 |----|
44
口口口④ |①---|
口口口③ |②---|
口口口② |③---|
口口口① |④---|
45
④口口口 |①---|
③口口口 |②---|
②口口口 |③---|
①口口口 |④---|
46
④口口④ |①---|
③口口③ |②---|
②口口② |③---|
口①①口 |④---|
47
口口口口 |①---|
口①①口 |----|
口①①口 |----|
口口口口 |----|
48
口口口口 |①---|
④口口② |②---|
口③③口 |③---|
口①①口 |④---|
49
②②①① |①---|
④④③③ |②---|
口口口口 |③---|
口口口口 |④---|
50
口口口口 |①---|
口口口口 |②---|
④口口③ |③---|
口②①口 |④---|
51
②②②② |①---|
口①①口 |----|
口①①口 |②---|
口口口口 |----|
52
口口口口 |①---|
口口①口 |②---|
④口②④ |③---|
口口③口 |④---|
53
口口口口 |①---|
口①口口 |②---|
④②口④ |③---|
口③口口 |④---|
54
口口口口 |①---|
②②①① |----|
口口口口 |②---|
口口口口 |----|
55
①口口① |①---|
②口口② |②---|
③口口③ |③---|
④口口④ |④---|
56
口口口口 |①---|
②口口④ |②---|
口③③口 |③---|
口①①口 |④---|
57
①①②② |①---|
③③④④ |②---|
口口口口 |③---|
口口口口 |④---|
58
口口口口 |①---|
口口口口 |②---|
③口口④ |③---|
口①②口 |④---|
59
②②②② |①---|
口①①口 |----|
口①①口 |②---|
口口口口 |----|
60
口口口口 |①---|
口①口口 |②---|
④②口④ |③---|
口③口口 |④---|
61
口口口口 |①---|
口口①口 |②---|
④口②④ |③---|
口口③口 |④---|
62
口口口口 |①---|
①①②② |----|
口口口口 |②---|
口口口口 |----|
63
①口口① |①---|
②口口② |②---|
③口口③ |③---|
④口口④ |④---|
64
口口口口 |①---|
口口口口 |----|
口①①口 |----|
口①①口 |----|
65
口口口口 |①---|
①口口① |----|
口口口口 |----|
口口口口 |----|
66
口口口口 |①---|
口口口口 |----|
①口口① |----|
口口口口 |----|
67
口口口口 |①---|
口①①口 |----|
口口口口 |----|
口口口口 |----|
68
③口口① |①---|
④口口② |②---|
口口口口 |③---|
口口口口 |④---|
69
④口口④ |①---|
③口口③ |②---|
口②②口 |③---|
口①①口 |④---|
70
口口口口 |①---|
口①①口 |----|
口①①口 |----|
口口口口 |----|
71
口口口口 |①---|
③口口③ |②---|
口②口口 |③---|
口口①口 |----|

accuracy: 99.5%
最終更新:2023年06月17日 04:14