アットウィキロゴ
リバースユニバース
ナユタン星人

ADVANCED

Level: 7
BPM: 139
Notes: 613

1
口口口口 |----|
口口口口 |----|
口口口口 |----|
口口口口 |----|
2
④口口口 |①-②-|
④口口口 |③--④|
口⑥⑤③ |--⑤-|
口②①口 |⑥---|
3
口口口④ |①-②-|
口口口④ |③--④|
③⑤⑥口 |--⑤-|
口①②口 |⑥---|
4
④口口⑦ |①-②-|
④口口⑦ |③--④|
口⑥⑤③ |--⑤-|
口②①口 |⑥-⑦-|
5
③④④口 |①-②-|
口①②口 |③--④|
⑤口口⑤ |--⑤-|
⑥口口⑥ |⑥---|
6
口口口口 |①②③④|
⑥口口⑤ |----|
⑥②①⑤ |⑤---|
口④③口 |⑥---|
7
口口口口 |①-②③|
④口口⑤ |----|
④②③⑤ |④---|
口口①口 |⑤---|
8
口口⑥⑦ |①②③④|
口口⑥⑦ |--⑤-|
⑤①②口 |⑥---|
口③④口 |⑦---|
9
①②口口 |①---|
①②口口 |②---|
口口口口
口口口口

口口口口
⑤口口⑤
④口口④ |③-④-|
口③③口 |⑤---|
10
口口口口 |①②③④|
⑥口口⑤ |----|
⑥②①⑤ |⑤---|
口④③口 |⑥---|
11
口口口口 |①②③④|
⑤口口⑥ |----|
⑤②①⑥ |⑤---|
口④③口 |⑥---|
12
⑦口口⑥ |①②③④|
⑦口口⑥ |--⑤-|
⑤①②口 |⑥---|
口③④口 |⑦---|
13
④④⑤⑤ |①-②③|
口⑦③口 |--④-|
口②⑥① |⑤---|
口口口① |⑥-⑦-|
14
①⑤⑤④ |①---|
口口③口 |②-③-|
口②口口 |④---|
口⑥⑥口 |⑤-⑥-|
15
②口口② |①-②-|
③口⑦③ |③-④-|
①⑥口① |⑤---|
④⑤⑤④ |⑥-⑦-|
16
④口口① |①---|
口③⑦口 |②-③-|
口⑥②口 |④--⑤|
口口⑤口 |⑥-⑦-|
17
⑤口口① |①--②|
口④⑦口 |③-④-|
口⑥③口 |⑤---|
口②口口 |⑥-⑦-|
18
口口口① |①--②|
口④口口 |③-④-|
口口③口
口②口口

⑤⑥⑥口
⑤口口口
口口口口 |⑤---|
口⑦⑦口 |⑥-⑦-|
19
③口口口 |①-②-|
④②③② |③-④-|
口①④①
口口口口

口口口⑥
口口口口
⑤⑦口口 |⑤---|
口口⑤口 |⑥-⑦-|
20
③③口⑤ |①-②-|
⑥②②⑤ |③-④-|
⑥口①① |⑤-⑥-|
口④④口 |----|
21
②口口口 |①---|
口口②口 |--②-|
口①①口
口①①口

口口口③
口③口口
口口⑤口 |③---|
④口口④ |④--⑤|
22
⑤⑥②口 |①---|
口③④口 |②--③|
口①口口 |④---|
口②⑤⑥ |⑤-⑥-|
23
④口口⑤ |--①-|
口③②① |②-③-|
口③②① |④---|
口⑤④口 |⑤---|
24
②口口口 |①-②-|
②口口口 |--③-|
①①③③
口口口口

⑥口口④
口口口④
口⑥口口 |④---|
口⑤⑤口 |⑤-⑥-|
25
口②口口 |--①-|
④口④口 |②-③-|
②口③① |④---|
口④口口 |----|
26
①②③口 |①---|
口①②③ |②---|
④口口⑤ |③---|
口口⑤口 |④-⑤-|
27
口口④④ |--①-|
口口口口 |--②-|
口②①口 |----|
②①③③ |③-④-|
28
②②口口 |----|
④口口④ |①-②-|
口③③口 |--③-|
①①口口 |④---|
29
④②③① |①-②-|
口口口口 |③-④-|
口口口口 |----|
①③②④ |----|
30
①口口② |①---|
①口口② |②---|
②口口①
②口口①

⑤④④⑤
口③③口
口③③口 |③---|
口口口口 |④-⑤-|
31
⑤口口④ |--①-|
①②③口 |②-③-|
①②③口 |④---|
口④⑤口 |⑤---|
32
口口口② |①-②-|
口口口② |--③-|
③③①①
口口口口

④口⑥口
④口口口
口口⑥口 |④---|
口⑤⑤口 |⑤-⑥-|
33
①④口④ |--①-|
②①口口 |②-③-|
③②④口 |④---|
口③口口 |----|
34
口口①口 |①---|
口②口① |②---|
口口②口
口口口口

⑤口④④
⑤口口口
③口口口 |③---|
口③口口 |④-⑤-|
35
口①口口 |--①-|
口②③口 |②-③-|
口③②口
口口①口

⑤⑤⑤⑤
④口口④
口口口口 |----|
口口口口 |④-⑤-|
36
④④④④ |----|
口③③口 |①-②-|
②②②② |----|
口①①口 |③-④-|
37
口口口口 |----|
口口口口 |----|
口口口口 |----|
口口口口 |----|
38
口口口口 |①---|
①口口① |----|
①口口① |----|
口口口口 |----|
39
⑤⑦⑦⑤ |①-②-|
④⑦⑦④ |③-④-|
③⑥⑥③ |⑤-⑥-|
②①①② |⑦---|
40
口口口口 |①---|
④⑤口② |②---|
口口口口 |③---|
口③①口 |④-⑤-|
41
①②③④ |--①-|
口口口口 |②-③-|
口口口口 |④---|
口⑤口口 |⑤---|
42
口口⑤⑥ |①-②-|
④③口口 |--③-|
口口①② |④---|
口口口口 |⑤-⑥-|
43
③③口口 |--①-|
口口②口 |②---|
口①口口 |③---|
口口口④ |--④-|
44
口⑤口④ |①---|
口口口③ |②---|
口口口② |③---|
口①口口 |④-⑤-|
45
⑤口口④ |①---|
口口③口 |②---|
口口②口 |③---|
口口①口 |④-⑤-|
46
口①口口 |①---|
③④⑤② |②-③-|
口口⑥口 |④-⑤-|
口口口口 |⑥---|
47
①①②② |①-②-|
⑤口口⑤ |③-④-|
③③④④ |--⑤-|
⑥口口⑥ |--⑥-|
48
④⑤②口 |①---|
口口③口 |②---|
口①口口 |③---|
口②④⑤ |④-⑤-|
49
④口口⑤ |--①-|
口③②① |②-③-|
口③②① |④---|
口⑤④口 |⑤---|
50
②口口口 |①-②-|
②口口口 |--③-|
①①③③
口口口口

⑥口口④
口口口④
口⑥口口 |④---|
口⑤⑤口 |⑤-⑥-|
51
口②口口 |--①-|
④口④口 |②-③-|
②口③① |④---|
口④口口 |----|
52
①②③口 |①---|
口①②③ |②---|
④口口⑤ |③---|
口口⑤口 |④-⑤-|
53
口口④④ |--①-|
口口口口 |--②-|
口②①口 |----|
②①③③ |③-④-|
54
②②口口 |----|
④口口④ |①-②-|
口③③口 |--③-|
①①口口 |④---|
55
④②③① |①-②-|
口口口口 |③-④-|
口口口口 |----|
①③②④ |----|
56
①口口② |①---|
①口口② |②---|
②口口①
②口口①

⑤④④⑤
口③③口
口③③口 |③---|
口口口口 |④-⑤-|
57
⑤口口④ |--①-|
①②③口 |②-③-|
①②③口 |④---|
口④⑤口 |⑤---|
58
口口口② |①-②-|
口口口② |--③-|
③③①①
口口口口

④口⑥口
④口口口
口口⑥口 |④---|
口⑤⑤口 |⑤-⑥-|
59
①口口口 |--①-|
②①口口 |②-③-|
③②口口
口③口口

口④口④
口口口口
口⑤④口 |④---|
口口口口 |--⑤-|
60
口口①口 |①---|
口②口① |②---|
口口②口
口口口口

口口④④
⑤口口口
③口口⑤ |③---|
口③口口 |④-⑤-|
61
①②口口 |①-②-|
口③④口 |③-④-|
口④③口
口口②①

⑥⑥⑥⑥
⑤口口⑤
口口口口 |----|
口口口口 |⑤-⑥-|
62
④④④④ |----|
口③③口 |①-②-|
②②②② |----|
口①①口 |③-④-|
63
口口口口 |----|
口口口口 |----|
口口口口 |----|
口口口口 |----|
64
口口口口 |①---|
①口口① |----|
①口口① |----|
口口口口 |----|
65
口口①① |①---|
⑥口口口 |②-③-|
⑤口②⑦ |④-⑤-|
④口③口 |⑥-⑦-|
66
③③①① |①---|
口口口口 |--②-|
②口口口 |③---|
口④口口 |--④-|
67
口口口口 |①-②-|
口口①口 |③-④-|
口口②口
④口③口

⑦口口口
⑥口口口
⑤口⑧⑧ |⑤-⑥-|
口口口口 |⑦-⑧-|
68
③③①① |①---|
④口口④ |--②-|
②②口口 |③---|
口口口口 |--④-|
69
④口口④ |①-②-|
口③③口 |③-④-|
②口口②
口①①口

口⑤⑤口
口口口口
口⑧⑥口 |⑤-⑥-|
口口⑦口 |⑦-⑧-|
70
③口口口 |①---|
口②①① |--②-|
口口口口 |③---|
口口口口 |----|
71
④口⑤⑤ |--①-|
口口口③ |②-③-|
②口口口 |④---|
口口口① |⑤---|

accuracy: 99.5%
最終更新:2023年06月17日 04:23