アットウィキロゴ
リバースユニバース
ナユタン星人

EXTREME

Level: 9.1
BPM: 139
Notes: 872

1
口口口② |----|
口口口② |----|
③口口④ |--①-|
①①口口 |②-③④|
2
⑥口口⑥ |①-②-|
口④①口 |③④-⑤|
⑦③口⑦ |--⑥-|
口⑤⑤② |⑦---|
3
⑥口口⑥ |①-②-|
口①④口 |③④-⑤|
⑦口③⑦ |--⑥-|
②⑤⑤口 |⑦---|
4
⑥口口⑥ |①-②-|
⑧④①⑧ |③④-⑤|
⑦③口⑦ |--⑥-|
口⑤⑤② |⑦-⑧-|
5
口②①口 |①-②-|
口口③口 |③④-⑤|
口④口口
①⑤⑤②

⑥⑦⑦⑥
口口口口
口口口口 |--⑥-|
口口口口 |⑦---|
6
⑫口口⑤ |①②③④|
④⑩⑪① |-⑤⑥⑦|
⑥⑧⑨口 |⑧⑨⑩⑪|
口②③⑦ |⑫---|
7
口④①⑪ |①-②③|
口⑩⑨③ |-④⑤⑥|
②⑧⑦⑤ |⑦⑧⑨⑩|
⑥①口口 |⑪---|
8
口⑦口口 |①②③④|
⑥⑤口口 |-⑤⑥⑦|
口口③④
口口①②

⑧口⑨口
口⑬⑫口
口⑪⑩口 |⑧-⑨-|
口⑨口口 |⑩⑪⑫⑬|
9
④口口① |①②-③|
⑤口口② |④⑤⑥⑦|
口口⑦口
口口⑥③

⑬口口口
口⑨⑩⑪
口口口口 |⑧-⑨⑩|
口⑧口⑫ |⑪-⑫⑬|
10
口②③⑩ |①②③④|
口⑦⑧⑥ |--⑤⑥|
⑤⑦⑧口 |⑦-⑧-|
⑨④①⑨ |⑨--⑩|
11
⑫④②口 |①②③④|
⑩口⑤⑦ |-⑤⑥⑦|
⑧⑥口⑨ |⑧⑨⑩⑪|
口①③⑪ |⑫---|
12
口⑨⑦⑧ |①②③④|
⑩⑫⑤⑥ |-⑤⑥⑦|
④③⑪⑩ |⑧-⑨-|
②①⑨口 |⑩-⑪⑫|
13
④口口口 |①-②③|
口口③① |-④⑤⑥|
口②口口
⑥口口⑤

口⑧⑧⑦
⑩口口⑪
口口口口 |⑦-⑧-|
口⑨⑨口 |⑨-⑩⑪|
14
③口口② |①-②-|
口④口口 |③-④-|
①口②口
口口④口

口⑧⑥⑧
⑦口口口
口⑥口口 |⑤-⑥-|
⑤口口口 |⑦-⑧-|
15
③口口口 |①-②-|
口④②口 |③-④-|
①口口口
口口④②

口口⑥口
⑦口口口
口口口⑥ |⑤-⑥-|
⑤⑧口⑧ |⑦-⑧-|
16
③④⑧④ |①-②-|
⑦口②口 |③-④-|
①⑥⑧⑥ |⑤-⑥-|
⑤口②口 |⑦-⑧-|
17
③②口② |①-②-|
⑦④口④ |③-④-|
①⑥口⑥ |⑤-⑥-|
⑤⑧口⑧ |⑦-⑧-|
18
⑤①④口 |①-②③|
⑤③④口 |④-⑤-|
①口②口
口口口口

口⑦口⑦
口口口口
⑧口⑧口 |⑥---|
口⑥⑥口 |⑦-⑧-|
19
①⑦①口 |①-②-|
④口④⑥ |③-④-|
⑤③⑤③ |⑤---|
②⑤②⑤ |⑥-⑦-|
20
口口②口 |①-②-|
口④⑤口 |③-④⑤|
口①口口
口口③口

⑦口口口
口口口⑥
口⑨⑧口 |⑥-⑦-|
口⑪⑩口 |⑧⑨⑩⑪|
21
④口③① |①-②-|
②②③口 |③-④-|
口口口①
口口口④

口⑤口⑥
⑥口⑦⑤
⑤口口⑥ |⑤---|
⑥口⑤口 |⑥--⑦|
22
口口口口 |①-②-|
④口口口 |③-④⑤|
②①⑤口
口③口③

⑨⑧口⑧
口⑥⑨口
口⑨口口 |⑥-⑦-|
⑦口口口 |⑧-⑨-|
23
⑤③②⑤ |--①-|
③口口② |②-③-|
口④①④ |④---|
④①④口 |⑤---|
24
④①①④ |①-②-|
④①①④ |③-④-|
口口①④
口口③②

口⑦口口
口⑧⑧口
⑤⑥⑧口 |⑤-⑥-|
口⑧⑧⑧ |⑦-⑧-|
25
口口①口 |--①-|
②口口① |②-③-|
③口口③
②口口口

⑤⑥⑥⑤
口口④口
口④口口 |④-⑤-|
口口④口 |⑥---|
26
口口口③ |①-②-|
口①口口 |③-④-|
口口①③
④口②口

⑤⑦口口
口口口口
⑤口⑦口 |⑤-⑥-|
口⑧口⑥ |⑦-⑧-|
27
③口①口 |①-②-|
口口口口 |③-④-|
口①口③
口口②④

口口口⑤
⑥⑦⑧⑦
口⑧⑦⑧ |⑤-⑥-|
⑤⑦⑧口 |⑦-⑧-|
28
口②口② |----|
④②口② |①-②-|
口③②④ |--③-|
③口口① |④---|
29
①①①口 |①-②-|
口③③③ |③-④-|
④④④口
口②②②

⑤⑥⑥⑤
口口口口
口口口口 |--⑤-|
口口口口 |⑥---|
30
口④口③ |①-②-|
口①口口 |③-④-|
口口①口
③口②口

口口⑦⑧
⑤⑥口⑤
⑤口⑥⑤ |⑤-⑥-|
⑧⑦口口 |⑦-⑧-|
31
①②③口 |--①-|
口③②① |②-③-|
①②③口
口③②①

⑤口口④
④口口⑤
⑤口口④ |④---|
④口口⑤ |⑤---|
32
口①①④ |①-②-|
口口③口 |-③④-|
口②口②
②口②口

⑦口⑧口
口⑥口口
⑤口⑤⑧ |⑤--⑥|
口⑤口⑤ |⑦-⑧-|
33
⑥⑦⑦⑥ |①-②-|
⑤口③② |③-④-|
④②⑤口 |⑤-⑥-|
①口④③ |⑦---|
34
口口口口 |①---|
口口①② |②---|
口①②口
①②口口

口口③⑤
口③口口
③口口口 |③---|
④口④口 |④-⑤-|
35
口②口口 |①-②-|
②口③口 |③-④-|
口③①④
口口④口

⑥⑦⑤口
⑥口口口
⑥口口口 |⑤---|
⑥⑤口口 |⑥-⑦-|
36
口口②③ |①---|
口②口口 |②-③-|
口②①口
口②①口

④④口口
⑥口⑤⑤
口口⑤口 |④---|
口口⑤口 |⑤-⑥-|
37
口口①① |①-②-|
口④口④ |③-④-|
③口口③
②②口口

⑥⑦⑦⑥
口口⑤口
口口口口 |⑤-⑥-|
口口⑧⑤ |⑦-⑧-|
38
口口口口 |①---|
口③口口 |--②-|
口①②口 |③---|
口④口口 |--④-|
39
①①口① |①-②-|
④口④④ |③-④-|
②②口②
③口③③

⑥⑦⑦⑥
口⑤口口
口口⑤口 |⑤-⑥-|
口⑤⑧口 |⑦--⑧|
40
口口口⑤ |①---|
口口口② |②--③|
口①③⑥ |④---|
口④口口 |⑤-⑥-|
41
⑤口口口 |--①-|
③口口口 |②-③-|
口④②④ |④---|
①口口口 |⑤---|
42
口口口⑥ |①-②-|
口口⑤口 |--③-|
口③①口 |④---|
④口口② |⑤-⑥-|
43
②口口口 |--①-|
口①口口 |②---|
口③③口 |③---|
口口④口 |--④-|
44
⑦口④⑦ |①--②|
⑤口口① |③--④|
③口②⑧ |⑤-⑥-|
①⑥口口 |⑦-⑧-|
45
⑥口口⑦ |①-②-|
⑤口②⑦ |③-④-|
③口口口 |⑤---|
①③⑥④ |⑥-⑦-|
46
口口③⑤ |①---|
④口③口 |②-③-|
②口⑥⑥ |④-⑤-|
①口⑦② |⑥--⑦|
47
②口口③ |①-②-|
口②③口 |③-④-|
口①④口
①口口④

口口口⑥
口口口⑥
口口口口 |--⑤-|
⑤口⑤口 |--⑥-|
48
①口②口 |①-②-|
④口口口 |③-④-|
①口口②
口③口③

⑧⑦口⑦
口⑤⑧口
口⑧口口 |⑤-⑥-|
⑥口口口 |⑦-⑧-|
49
⑤③②⑤ |--①-|
③口口② |②-③-|
口④①④ |④---|
④①④口 |⑤---|
50
④①①④ |①-②-|
④①①④ |③-④-|
口口①④
口口③②

口⑦口口
口⑧⑧口
⑤⑥⑧口 |⑤-⑥-|
口⑧⑧⑧ |⑦-⑧-|
51
口口①口 |--①-|
②口口① |②-③-|
③口口③
②口口口

⑤⑥⑥⑤
口口④口
口④口口 |④-⑤-|
口口④口 |⑥---|
52
口口口③ |①-②-|
口①口口 |③-④-|
口口①③
④口②口

⑤⑦口口
口口口口
⑤口⑦口 |⑤-⑥-|
口⑧口⑥ |⑦-⑧-|
53
③口①口 |①-②-|
口口口口 |③-④-|
口①口③
口口②④

口口⑧⑤
⑥口口⑧
口口⑦口 |⑤-⑥-|
⑤⑧口口 |⑦-⑧-|
54
①③口口 |①---|
③口口口 |②-③-|
①②口口
口口③口

口口口④
口口⑤口
⑥口⑥④ |④-⑤-|
⑤口口口 |⑥---|
55
①①①口 |①-②-|
口③③③ |③-④-|
④④④口
口②②②

⑤⑥⑥⑤
口口口口
口口口口 |--⑤-|
口口口口 |⑥---|
56
口④口③ |①-②-|
口①口口 |③-④-|
口口①口
③口②口

口口⑦⑧
⑤⑥口⑤
⑤口⑥⑤ |⑤-⑥-|
⑧⑦口口 |⑦-⑧-|
57
①②③口 |--①-|
口③②① |②-③-|
①②③口
口③②①

⑤口口④
④口口⑤
⑤口口④ |④---|
④口口⑤ |⑤---|
58
口①①④ |①-②-|
口口③口 |-③④-|
口②口②
②口②口

⑦口⑧口
口⑥口口
⑤口⑤⑧ |⑤--⑥|
口⑤口⑤ |⑦-⑧-|
59
⑥⑦⑦⑥ |①-②-|
⑤口③② |③-④-|
④②⑤口 |⑤-⑥-|
①⑧④③ |⑦-⑧-|
60
口口口口 |①--②|
口③①④ |③-④-|
口口②口
口口口①

⑤⑤口⑧
⑤口口口
口口口口 |⑤-⑥-|
⑦口⑦⑥ |⑦-⑧-|
61
口②口口 |①-②-|
②口③口 |③-④-|
口③①④
口口④口

⑥⑦⑤口
⑥口口口
⑥口口口 |⑤---|
⑥⑤口口 |⑥-⑦-|
62
口口②③ |①---|
口②口口 |②-③-|
口②①口
口②①口

④④口口
⑥口⑤⑤
口口⑤口 |④---|
口口⑤口 |⑤-⑥-|
63
口口①① |①-②-|
口④口④ |③-④-|
③口口③
②②口口

⑥⑦⑦⑥
口口⑤口
口口口口 |⑤-⑥-|
口口⑧⑤ |⑦-⑧-|
64
口口口口 |①---|
口③口口 |--②-|
口①②口 |③---|
口④口口 |--④-|
65
口④口③ |①-②-|
⑤口②口 |③-④-|
⑥口①口 |⑤-⑥-|
⑦口⑧口 |⑦-⑧-|
66
口口口口 |①---|
口③口口 |--②-|
口①②口 |③---|
口⑤④口 |--④⑤|
67
口④口③ |①-②-|
⑤口②口 |③-④-|
⑥口①口 |⑤-⑥-|
⑦口⑧口 |⑦-⑧-|
68
口口口口 |①---|
口口口口 |--②-|
口①②口
口①口口

口口口口
口③口口
口口口口 |③---|
口④口口 |--④-|
69
④⑤③口 |①-②-|
⑤⑥②③ |③-④-|
⑥⑦①② |⑤-⑥-|
⑦⑧口① |⑦-⑧-|
70
口口口口 |①---|
口口③口 |--②-|
口②①口 |③---|
口口①口 |----|
71
口口口口 |--①-|
口口③③ |②-③-|
口②②口
①①口口

④口口④
口口口口
⑤口口口 |④---|
⑥口口口 |⑤-⑥-|

accuracy: 99.5%
最終更新:2023年06月17日 04:39