アットウィキロゴ
ルミナスデイズ
ここなつ

BASIC

Level: 2
BPM: 145
Notes: 140

1
口口口口 |(145)----|
口口口口 |----|
口口口口 |----|
口口口口 |----|
2
口口口口 |①---|
口口口口 |----|
口口口口 |----|
口口①口 |----|
3
口口口口 |①---|
口口口口 |----|
口口口口 |----|
口①口口 |----|
4
口口口口 |①---|
口口口口 |----|
口口①口 |----|
口口口口 |----|
5
口口口口 |①---|
口口口口 |----|
口①口口 |----|
口口口口 |----|
6
口口口口 |①---|
口口口口 |----|
口口口口 |----|
口口①口 |----|
7
口口口口 |①---|
口口口口 |----|
口口口口 |----|
口①口口 |----|
8
口口口口 |①---|
口口口口 |----|
口口①口 |----|
口口口口 |----|
9
口口口口 |①---|
口口口口 |----|
口①口口 |----|
口口口口 |----|
10
口口口① |①---|
口口口② |----|
口口口口 |②---|
口口口口 |----|
11
口口口口 |①---|
口口口口 |----|
口口口① |----|
口口口口 |----|
12
①口口口 |①---|
②口口口 |----|
口口口口 |②---|
口口口口 |----|
13
口口口口 |①---|
口口口口 |----|
①口口口 |----|
口口口口 |----|
14
口口口口 |①---|
口口口口 |----|
口口口口 |②---|
口口②① |----|
15
口口口口 |①---|
口口口口 |----|
口口口口 |②---|
②①口口 |----|
16
口口口口 |①---|
口口口口 |----|
口①①口 |----|
口口口口 |----|
17
口口口口 |①---|
口口口口 |----|
①口口① |----|
口口口口 |----|
18
口口口口 |①---|
口口口口 |----|
口口口口 |----|
口①①口 |----|
19
口口口口 |①---|
口口口口 |----|
口①①口 |----|
口口口口 |----|
20
口口口口 |①---|
①②口口 |----|
口口口口 |②---|
口口口口 |----|
21
口口口口 |①---|
口口①② |----|
口口口口 |②---|
口口口口 |----|
22
口①①口 |①---|
口口口口 |----|
口口口口 |----|
口口口口 |----|
23
①口口① |①---|
口口口口 |----|
口口口口 |----|
口口口口 |----|
24
口口口口 |①---|
口①①口 |----|
口口口口 |----|
口口口口 |----|
25
口①①口 |①---|
口口口口 |----|
口口口口 |----|
口口口口 |----|
26
口口口① |①---|
口口口口 |----|
口口口口 |----|
口口口口 |----|
27
口口口口 |①---|
口口口① |----|
口口口口 |----|
口口口口 |----|
28
口口口口 |①---|
口口口口 |----|
口口口① |----|
口口口口 |----|
29
口口口口 |①---|
口①①口 |----|
口口口口 |----|
口口口口 |----|
30
口口①口 |①---|
口口口口 |----|
口口口口 |----|
口口口口 |----|
31
口口口口 |①---|
口口①口 |----|
口口口口 |----|
口口口口 |----|
32
口口口口 |①---|
口口口口 |----|
口口①口 |----|
口口口口 |----|
33
口口口口 |①---|
口口口口 |----|
口口口口 |----|
口口①口 |----|
34
口口口口 |①---|
口口口口 |----|
口口口口 |----|
口①口口 |----|
35
口口口口 |①---|
口口口口 |----|
口①口口 |----|
口口口口 |----|
36
口口口口 |①---|
口①口口 |----|
口口口口 |----|
口口口口 |----|
37
口①口口 |①---|
口口口口 |----|
口口口口 |----|
口口口口 |----|
38
口口①口 |①---|
口口口口 |----|
口口口口 |----|
口口口口 |----|
39
口口口口 |①---|
口口①口 |----|
口口口口 |----|
口口口口 |----|
40
口口口口 |①---|
口口口口 |----|
口口①口 |----|
口口口口 |----|
41
口口口口 |①---|
口口口口 |----|
口口口口 |----|
口口①口 |----|
42
口口口口 |①---|
口口口口 |----|
口口口口 |----|
口①口口 |----|
43
口口口口 |①---|
口口口口 |----|
①口口① |----|
口口口口 |----|
44
口口口口 |①---|
口口③口 |②---|
口口②口 |③---|
口④①口 |④---|
45
口口口口 |①---|
口②口口 |②---|
口①口口 |----|
口口口口 |----|
46
①口口① |①---|
口口口口 |----|
口口口口 |----|
口口口口 |----|
47
口口口口 |①---|
①口口① |----|
口口口口 |----|
口口口口 |----|
48
口口口口 |①---|
口③口口 |②---|
口②口口 |③---|
口①④口 |④---|
49
口口口口 |①---|
口口②口 |②---|
口口①口 |----|
口口口口 |----|
50
①口口① |①---|
口口口口 |----|
口口口口 |----|
口口口口 |----|
51
口口口口 |①---|
①口口① |----|
口口口口 |----|
口口口口 |----|
52
口口口口 |①---|
③口口③ |②---|
②口口② |③---|
①④④① |④---|
53
口口口口 |①---|
口②②口 |②---|
口①①口 |----|
口口口口 |----|
54
①口口① |①---|
口口口口 |----|
口口口口 |----|
口口口口 |----|
55
口口口口 |①---|
①口口① |----|
口口口口 |----|
口口口口 |----|
56
口口口口 |①---|
③口口③ |②---|
②口口② |③---|
①④④① |④---|
57
口口口口 |①---|
口②②口 |②---|
口①①口 |----|
口口口口 |----|
58
①口口① |①---|
口口口口 |----|
口口口口 |----|
口口口口 |----|
59
口口口口 |①---|
口①①口 |----|
口②②口 |②---|
口口口口 |----|
60
口④口口 |①---|
口③②① |②---|
口口口口 |③---|
口口口口 |④---|
61
口口①② |①---|
口口口口 |②---|
口口口口 |----|
口口口口 |----|
62
口口口口 |①---|
口口口口 |----|
口①①口 |----|
口口口口 |----|
63
口口口口 |①---|
口口口口 |----|
口口口口 |----|
口①①口 |----|
64
口口口口 |①---|
口口④口 |②---|
①②③口 |③---|
口口口口 |④---|
65
口口口口 |①---|
②①口口 |②---|
口口口口 |----|
口口口口 |----|
66
口①①口 |①---|
口口口口 |----|
口口口口 |----|
口口口口 |----|
67
口口口口 |①---|
口①①口 |----|
口口口口 |----|
口口口口 |----|
68
口口口口 |①---|
口口口口 |----|
口口口口 |----|
口口①口 |----|
69
口口口口 |①---|
口口口口 |----|
口口口口 |----|
口①口口 |----|
70
口口口口 |①---|
口口口口 |----|
口口①口 |----|
口口口口 |----|
71
口口口口 |①---|
口口口口 |----|
口①口口 |----|
口口口口 |----|
72
口口口口 |①---|
口口口① |----|
口口口口 |----|
口口口口 |----|
73
口口口口 |----|
口口口口 |----|
口口口口 |----|
口口口口 |----|
74
口口口口 |(136)-①--|
①口口口 |----|
口口口口 |----|
口口口口 |----|
75
口口口口 |(115)----|
口口口口 |----|
口口口口 |----|
口口口口 |----|
76
口口口口 |----|
口①①口 |--①-|
口口口口 |----|
口口口口 |----|

accuracy: 99.5%
最終更新:2024年08月11日 08:09