アットウィキロゴ
ルミナスデイズ
ここなつ

ADVANCED

Level: 4
BPM: 145
Notes: 272

1
口口口口 |(145)----|
口口口口 |----|
口口口口 |----|
口口口口 |----|
2
口口①口 |①---|
口口②口 |②---|
口口口口 |----|
口口口口 |----|
3
口①口口 |①---|
口②口口 |②---|
口口口口 |----|
口口口口 |----|
4
口口①口 |①---|
口口口口 |----|
口口②口 |②---|
口口口口 |----|
5
口①口口 |①---|
口口口口 |----|
口②口口 |②---|
口口口口 |----|
6
口口口口 |①---|
口口①口 |----|
口口口口 |----|
口口口口 |----|
7
口口口口 |①---|
口①口口 |----|
口口口口 |----|
口口口口 |----|
8
口口口① |①---|
口口口口 |----|
口口口口 |----|
口口口口 |----|
9
①口口口 |①---|
口口口口 |----|
口口口口 |----|
口口口口 |----|
10
口口口口 |①---|
口口口口 |②---|
口口口口 |③---|
口③②① |----|
11
口口口口 |①---|
口口口口 |②---|
①②③口 |③---|
口口口口 |----|
12
口口口口 |①---|
口③②① |②---|
口口口口 |③---|
口口口口 |----|
13
口口口口 |①---|
②口口② |----|
口口口口 |②---|
口①①口 |----|
14
口口口④ |①---|
口口口③ |②---|
口口口② |③---|
口口口① |④---|
15
④口口口 |①---|
③口口口 |②---|
②口口口 |③---|
①口口口 |④---|
16
②口口② |①---|
口口口口 |----|
口①①口 |②---|
口口口口 |----|
17
口口口口 |----|
口口口口 |----|
口口口口 |①---|
②口口① |②---|
18
口口口口 |①---|
口口口口 |②---|
口④②口 |③---|
口③①口 |④---|
19
②口口② |①---|
①口口① |----|
口口口口 |②---|
口口口口 |----|
20
④口口口 |①---|
③口口口 |②---|
②口口口 |③---|
①口口口 |④---|
21
口口口④ |①---|
口口口③ |②---|
口口口② |③---|
口口口① |④---|
22
②口口② |①---|
口口口口 |----|
口①①口 |②---|
口口口口 |----|
23
口口口口 |----|
口口口口 |----|
口口口口 |①---|
①口口② |②---|
24
口口口口 |①---|
口口口口 |②---|
口②④口 |③---|
口①③口 |④---|
25
②口口② |①---|
①口口① |----|
口口口口 |②---|
口口口口 |----|
26
口口①口 |①---|
口②口口 |②---|
口口③口 |③---|
口④口口 |④---|
27
口④口口 |①---|
口口③口 |②---|
口②口口 |③---|
口口①口 |④---|
28
口口口① |①---|
口口②口 |②---|
口③口口 |③---|
④口口口 |④---|
29
口①①口 |①---|
口①①口 |----|
口口口口 |----|
口口口口 |----|
30
口口口① |①---|
口口口② |----|
口口口口 |②---|
口口口口 |----|
31
口口口口 |①---|
口口口口 |----|
口口口① |②---|
口口口② |----|
32
口口口口 |①---|
口口口口 |----|
口口②口 |②---|
口口①口 |----|
33
口口②口 |①---|
口口①口 |----|
口口口口 |②---|
口口口口 |----|
34
口①口口 |①---|
口②口口 |----|
口口口口 |②---|
口口口口 |----|
35
口口口口 |①---|
口口口口 |----|
口①口口 |②---|
口②口口 |----|
36
口口口口 |①---|
口口口口 |----|
②口口口 |②---|
①口口口 |----|
37
②口口口 |①---|
①口口口 |----|
口口口口 |②---|
口口口口 |----|
38
口①口口 |①---|
口②口口 |----|
口口口口 |②---|
口口口口 |----|
39
口口口口 |①---|
口口口口 |----|
口①口口 |②---|
口②口口 |----|
40
口口口口 |①---|
口口口口 |----|
口口②口 |②---|
口口①口 |----|
41
口口②口 |①---|
口口①口 |----|
口口口口 |②---|
口口口口 |----|
42
口口口① |①---|
口口②口 |----|
口口③口 |②---|
口口口口 |③---|
43
口口口口 |①---|
口口口口 |----|
③口口② |②---|
口①①口 |③---|
44
口口口口 |①---|
口口③③ |②---|
口口②② |③---|
④④①① |④---|
45
口口口口 |①---|
②②口口 |②---|
①①③口 |----|
口口口口 |③---|
46
③③①① |①---|
口④④口 |②---|
口②口口 |③---|
口口口口 |④---|
47
口口口口 |①---|
口口口口 |②---|
口①①③ |----|
口②②口 |③---|
48
口口口口 |①---|
③③口口 |②---|
②②口口 |③---|
①①④④ |④---|
49
口口口口 |①---|
口口②② |②---|
口③①① |----|
口口口口 |③---|
50
①①③③ |①---|
口④④口 |②---|
口口②口 |③---|
口口口口 |④---|
51
④口口④ |①---|
③口口③ |②---|
口①①口 |③---|
口②②口 |④---|
52
口口口口 |①---|
口口③③ |②---|
口口②② |③---|
④④①① |④---|
53
口口口口 |①---|
②②口口 |②---|
①①③口 |----|
口口口口 |③---|
54
③③①① |①---|
口④④口 |②---|
口②口口 |③---|
口口口口 |④---|
55
口口口口 |①---|
口口口口 |②---|
口①①③ |----|
口②②口 |③---|
56
口口口口 |①---|
③③口口 |②---|
②②口口 |③---|
①①④④ |④---|
57
口口口口 |①---|
口口②② |②---|
口③①① |----|
口口口口 |③---|
58
①①③③ |①---|
口④④口 |②---|
口口②口 |③---|
口口口口 |④---|
59
口口口口 |①---|
③口口③ |----|
②①①② |②---|
口①①口 |③---|
60
口口口口 |①---|
口口口口 |②---|
口口②口
口①①口

口口口口
口口③③
口口口口 |③---|
口④④口 |④---|
61
口口口口 |①---|
②②口口 |②---|
口①口口 |----|
口口口口 |----|
62
口口口口 |①---|
口口口口 |----|
口②①口 |②---|
口口口口 |----|
63
①口口① |①---|
③口口③ |②---|
②口口② |③---|
④口口④ |④---|
64
口口口口 |①---|
口口口口 |②---|
口②口口
口①①口

口口口口
③③口口
口口口口 |③---|
口④④口 |④---|
65
口口口口 |①---|
口口②② |②---|
口口①口 |----|
口口口口 |----|
66
口口口口 |①---|
口口口口 |----|
口①②口 |②---|
口口口口 |----|
67
②口口② |①---|
①口口① |----|
口口口口 |②---|
口口口口 |----|
68
口口①口 |①---|
口口②口 |②---|
口口口口 |----|
口口口口 |----|
69
口①口口 |①---|
口②口口 |②---|
口口口口 |----|
口口口口 |----|
70
口口①口 |①---|
口口口口 |----|
口口②口 |②---|
口口口口 |----|
71
口①口口 |①---|
口口口口 |----|
口②口口 |②---|
口口口口 |----|
72
口口口口 |①---|
口口①口 |----|
口口口口 |----|
口口口口 |----|
73
口口口口 |①---|
口①口口 |----|
口口口口 |----|
口口口口 |----|
74
口口口① |(136)-①--|
口口口口 |----|
口口口口 |----|
口口口口 |----|
75
①口口口 |(115)---①|
口口口口 |----|
口口口口 |----|
口口口口 |----|
76
口口口口 |----|
口口口口 |--①-|
口①①口 |----|
口口口口 |----|

accuracy: 99.5%
最終更新:2024年08月11日 08:09