アットウィキロゴ
ルミナスデイズ
ここなつ

EXTREME

Level: 7
BPM: 145
Notes: 430

1
口口口口 |(145)----|
口口口口 |----|
口口口口 |----|
口口口口 |----|
2
口④口口 |①-②-|
口口③口 |③-④-|
口②口口 |----|
口口①口 |----|
3
④口口口 |①-②-|
口口口③ |③-④-|
②口口口 |----|
口口口① |----|
4
口口口口 |①---|
④③②口 |--②③|
口①口口 |④---|
口口口口 |----|
5
口②口口 |①---|
口口③口 |②-③-|
①口口④ |④---|
⑤⑥口口 |--⑤⑥|
6
口④口口 |①-②-|
口口③口 |③-④-|
口②⑤口 |----|
口口①口 |⑤---|
7
①口口口 |①---|
口口口③ |②---|
口②口口 |③---|
口口④口 |④---|
8
口①口① |①---|
口口口口 |----|
②口②口 |②---|
口口口口 |----|
9
口口口口 |①---|
①口①口 |----|
口口口口 |②---|
口②口② |----|
10
口口①① |①-②-|
口②口口 |③-④-|
口口③口
口④口口

口口口⑥
口口口⑤
口口口口 |⑤---|
口口口口 |⑥---|
11
口口口口 |--①-|
口③口口 |②-③-|
口口②口
口①口口

口口④口
口口口口
口口口口 |④---|
口⑤⑤口 |⑤---|
12
①①口口 |①-②-|
口口②口 |③-④-|
口③口口
口口④口

⑥口口口
⑤口口口
口口口口 |⑤---|
口口口口 |⑥---|
13
口口口口 |①---|
口口口口 |----|
口口①①
口口口口

口②口口
②口③口
口口口③ |②---|
口口口口 |③---|
14
口口⑦口 |--①-|
口口口⑥ |②-③-|
口口⑤口 |④-⑤-|
①②③④ |⑥-⑦-|
15
口⑦口口 |--①-|
⑥口口口 |②-③-|
口⑤口口 |④-⑤-|
④③②① |⑥-⑦-|
16
口口口口 |----|
口口①② |--①-|
口口口口 |②---|
口口口口 |----|
17
口口④口 |----|
口口③口 |----|
口口②口 |①-②-|
口口①口 |③-④-|
18
①口口口 |----|
②口口口 |--①-|
口口口口 |②---|
口口③口 |③---|
19
④口④口 |①---|
③②③② |②---|
口①口① |③---|
口口口口 |④---|
20
口口⑦口 |--①-|
口口口⑥ |②-③-|
口口⑤口 |④-⑤-|
①②③④ |⑥-⑦-|
21
口⑦口口 |--①-|
⑥口口口 |②-③-|
口⑤口口 |④-⑤-|
④③②① |⑥-⑦-|
22
口口口口 |----|
口①②③ |--①②|
口口口口 |③---|
口口口口 |----|
23
口④口口 |----|
口③口口 |----|
口②口口 |①-②-|
口①口口 |③-④-|
24
④口口③ |----|
④口②口 |①-②-|
口口口① |③---|
口口口口 |④---|
25
口⑤口② |①---|
口口④② |②---|
口③①口 |③---|
口③①口 |④-⑤-|
26
③口口① |①---|
口口口口 |②---|
口④②口 |③---|
口口口口 |④---|
27
口③①口 |①---|
口口⑥⑤ |②---|
④口口② |③---|
口口口口 |④-⑤⑥|
28
⑤口⑥② |①-②-|
口①口口 |③-④-|
口⑦口口 |⑤-⑥-|
口③④⑧ |⑦-⑧-|
29
口口②口 |①---|
①①①① |----|
口口口口 |----|
口口口口 |--②-|
30
口口口① |①---|
口口③② |--②-|
口口④口 |③---|
口口口口 |--④-|
31
口④口口 |①---|
口口口口 |--②-|
口口口① |③---|
口口③② |--④-|
32
①口口口 |①---|
②③口口 |--②-|
口④口口 |③---|
口口口口 |--④-|
33
口口④口 |①---|
③口口③ |②---|
①口口口 |③---|
口②②口 |--④-|
34
口口口① |①---|
口口③② |--②-|
口口④口 |③---|
口口口口 |--④-|
35
口④口口 |①---|
口口口口 |--②-|
口口口① |③---|
口口③② |--④-|
36
①口口口 |①---|
口②③口 |②-③-|
口口口口
口口口口

⑤口口口
口口口④
口口口口 |④---|
口口口口 |⑤---|
37
口口口口 |①---|
口口口口 |--②-|
③②口口 |③---|
口①①口 |----|
38
口口口① |①---|
口口③② |--②-|
口口④口 |③---|
口口口口 |--④-|
39
口④口口 |①---|
口口口口 |--②-|
口口口① |③---|
口口③② |--④-|
40
①口口口 |①---|
②③口口 |--②-|
口④口口 |③---|
口口口口 |--④-|
41
口口口口 |①---|
③口④③ |②---|
①口口口 |③---|
口②②口 |--④-|
42
口口口④ |①---|
口②口口 |--②-|
口③①口 |③---|
口口口口 |④---|
43
④④④口 |①---|
③③口口 |②---|
②口口口 |③---|
口①①口 |④---|
44
口口④④ |①-②-|
口口口③ |③---|
口②⑥③ |④---|
⑤⑤①① |⑤-⑥-|
45
②②口口 |①---|
①⑤口口 |②---|
①口④口 |③---|
口③③口 |④-⑤-|
46
口口口④ |①-②-|
口口口③ |③-④-|
①口口②
口口口口

⑧口⑤口
⑦口口口
⑥口口口 |⑤-⑥-|
口口口口 |⑦-⑧-|
47
口①口口 |①-②-|
口③②口 |③---|
口②③口
口口口口

④口口④
口口口口
口⑤口口 |④---|
口⑥口口 |⑤-⑥-|
48
③③口口 |①---|
口②口口 |②---|
口口②口 |③---|
④④①① |④---|
49
口口②② |①---|
口⑤①口 |②---|
口①④口 |③---|
口③③口 |④-⑤-|
50
口口口④ |①-②-|
口口口③ |③-④-|
①口口②
口口口口

口口⑤口
口口口口
⑥口口口 |⑤---|
口⑥口口 |⑥---|
51
口①口④ |①---|
①口③口 |②-③-|
口口②⑤ |④---|
口口⑤口 |⑤---|
52
④④口口 |①-②-|
③口口口 |③---|
③⑥②口 |④---|
①①⑤⑤ |⑤-⑥-|
53
口口②② |①---|
口口⑤① |②---|
口④口① |③---|
口③③口 |④-⑤-|
54
④口口口 |①-②-|
③口口口 |③-④-|
②口口①
口口口口

口⑤口⑧
口口口⑦
口口口⑥ |⑤-⑥-|
口口口口 |⑦-⑧-|
55
④口①④ |①-②-|
口②③口 |③---|
⑥③②口 |④---|
⑤口口口 |⑤-⑥-|
56
口⑦口口 |①-②-|
口④②口 |③-④-|
⑥口口口 |⑤---|
⑤⑤③① |⑥-⑦-|
57
④口②④ |①-②-|
口口口口 |③---|
口①③③ |④---|
⑤⑥口口 |⑤-⑥-|
58
口口口口 |①-②-|
口口③④ |③-④-|
口①②口
口口口口

⑤口口口
口⑤口口
口口⑥口 |⑤---|
口口口⑥ |⑥---|
59
⑦⑦口⑧ |①-②-|
⑤⑤口⑥ |③-④-|
③口④口 |⑤-⑥-|
①①②口 |⑦-⑧-|
60
口口③③ |①---|
口口口口 |②---|
口口口② |③---|
口④①口 |④---|
61
②②口口 |①---|
口口③口 |②---|
①④口口 |③---|
口口口口 |④---|
62
口①口① |①---|
口口口② |②---|
③口③口 |③---|
④口口口 |④---|
63
口④④口 |①---|
③口口③ |②---|
②口口② |③---|
口①①口 |④---|
64
③③口口 |①---|
口口口口 |②---|
②口口口 |③---|
口①④口 |④---|
65
口口②② |①---|
口③口口 |②---|
口口④① |③---|
口口口口 |④---|
66
①口口口 |①---|
口口①② |----|
口②口口 |②---|
口口口口 |----|
67
口口口口 |①---|
口口口口 |----|
①口口口 |②---|
②口①② |----|
68
口④口口 |①-②-|
口口③口 |③-④-|
口②口口 |----|
口口①口 |----|
69
④口口口 |①-②-|
口口口③ |③-④-|
②口口口 |----|
口口口① |----|
70
口口口口 |①---|
④③②口 |--②③|
口①口口 |④---|
口口口口 |----|
71
口②口口 |①---|
口口③口 |②-③-|
①口口④ |④---|
⑤⑥口口 |--⑤⑥|
72
口④口口 |①-②-|
口口③口 |③-④-|
口②⑤口 |----|
口口①口 |⑤---|
73
①口口口 |①---|
口口口③ |②---|
口②口口 |③---|
口口④口 |-④--|
74
口①口① |(136)-①--|
口口口口 |----|
②口②口 |-----②--|
口口口口 |----|
75
①口①口 |(115)---①|
口口口口 |----|
口口口口 |----|
口②口② |-②--|
76
口口口口 |----|
①口口① |--①-|
①口口① |----|
口口口口 |----|

accuracy: 99.5%
最終更新:2024年08月11日 08:09