アットウィキロゴ
AI
BEMANI Sound Team "Sota F."

BASIC

Level: 5
BPM: 190
Notes: 340

1
口口口口 |----|
口口口口 |----|
口口口口 |----|
口口口口 |----|
2
①口口① |①---|
④口口④ |②-③-|
口②③口 |④---|
口⑤⑥口 |⑤-⑥-|
3
④④④④ |①---|
口③③口 |②---|
①②②① |③---|
口口口口 |④---|
4
口④口口 |①---|
③口口口 |②---|
②口口口 |③---|
口①①口 |④---|
5
口口①口 |①---|
口口口② |②---|
口口口③ |③---|
口口④口 |④---|
6
口口口口 |①---|
①①②② |----|
口口口口 |②---|
口口口口 |----|
7
①口口① |①---|
口④口口 |②---|
口③口口 |③---|
口②口口 |④---|
8
口①①口 |①---|
③口口④ |②---|
口口②口 |③---|
口口口口 |④---|
9
口①口口 |①---|
口②口口 |②---|
口③口口 |③---|
口④口口 |④---|
10
④口口口 |①---|
口口口③ |②---|
②口口口 |③---|
口口口① |④---|
11
口口口① |①---|
口口②口 |②---|
口③口口 |③---|
④口口口 |④---|
12
口②②口 |①---|
④口口③ |②---|
口口口口 |③---|
口①①口 |④---|
13
④口口口 |①---|
口③口口 |②---|
口口②口 |③---|
口口口① |④---|
14
④④②② |①---|
口③①口 |②---|
口口口口 |③---|
口口口口 |④---|
15
口口口口 |①---|
口口口④ |②---|
口口①③ |③---|
口②口口 |④---|
16
口口①① |①---|
口②口口 |②---|
口口③口 |③---|
口④口口 |④---|
17
口口口④ |①---|
口口口③ |②---|
口口口② |③---|
口口口① |④---|
18
口口口口 |①---|
①①口口 |--②-|
口口②② |----|
③③口口 |③---|
19
口口口口 |----|
②口①③ |①---|
口①口口 |②---|
口口口口 |③---|
20
口口口口 |①---|
口口口口 |②---|
口③④口 |③---|
①②口口 |④---|
21
口口口③ |①---|
口④①② |②---|
口口口口 |③---|
口口口口 |④---|
22
口口口口 |①---|
口口口口 |②---|
口④③口 |③---|
口口②① |④---|
23
③口④口 |①---|
②①口口 |②---|
口口口口 |③---|
口口口口 |④---|
24
口口口口 |①---|
口口口口 |②---|
口③④口 |③---|
①②口口 |④---|
25
口口口③ |①---|
口④①② |②---|
口口口口 |③---|
口口口口 |④---|
26
口口口口 |①---|
口口口口 |②---|
口④③口 |③---|
口口②① |④---|
27
①①②② |①---|
口口口口 |--②-|
口③③口 |----|
口口口口 |③---|
28
口口口口 |①---|
①口口① |----|
口口口口 |②---|
②口口② |----|
29
口口①口 |①---|
口②口口 |②---|
口口③口 |③---|
口④口口 |④---|
30
口口口口 |①---|
口口①① |----|
②②口口 |②---|
口口口口 |----|
31
④③②① |①---|
口口口口 |②---|
口口口口 |③---|
口口口口 |④---|
32
口口口口 |①---|
口③①① |②---|
口口④口 |③---|
②②口口 |④---|
33
口口①① |①---|
口口②② |--②-|
口口③③ |----|
口口口口 |③---|
34
①口口③ |①---|
口②④口 |②---|
口口口口 |③---|
口口口口 |④---|
35
口①①口 |①---|
口口口口 |----|
口②口口 |----|
口口口口 |②---|
36
口口口口 |①---|
①口口① |----|
口口口口 |②---|
②口口② |----|
37
口②④口 |①---|
口口口口 |②---|
口①③口 |③---|
口口口口 |④---|
38
口口口口 |①---|
①①②② |②---|
口口口口 |③---|
③③④④ |④---|
39
口口口口 |①---|
口②④口 |②---|
①口口③ |③---|
口口口口 |④---|
40
①口口① |①---|
口口口口 |②---|
③口口④ |③---|
口②②口 |④---|
41
口③③口 |①---|
口②②口 |--②-|
口①①口 |----|
口口口口 |③---|
42
①口口口 |①---|
口口口② |②---|
③口口口 |③---|
口口口④ |④---|
43
②口口③ |①---|
口①①口 |----|
口①①口 |②---|
口口口口 |③---|
44
口②口口 |①---|
口口口口 |----|
口口口口 |②---|
口①口口 |----|
45
口口①口 |①---|
口口口口 |----|
口口③口 |②---|
口口②口 |③---|
46
口口口口 |①---|
口②①口 |----|
口口口口 |②---|
口口口口 |----|
47
②口口① |①---|
口口口口 |----|
口口口口 |②---|
口口口口 |----|
48
口①①口 |①---|
口口口口 |----|
口②②口 |②---|
口口口口 |----|
49
口口口口 |①---|
②口口① |----|
口口口口 |②---|
口口口口 |----|
50
口口口口 |①---|
口口口口 |----|
口口口口 |②---|
②口口① |----|
51
口口①① |①---|
口口口口 |----|
②②口口 |②---|
口口口口 |----|
52
口口口口 |①---|
口口①口 |----|
口口口口 |----|
口口口口 |----|
53
口口口口 |①---|
口①口口 |----|
口口口口 |----|
口口口口 |----|
54
口口口口 |①---|
口口①口 |----|
口口口口 |----|
口口口口 |----|
55
口口口口 |①---|
④①口④ |②---|
③口口③ |③---|
②口口② |④---|
56
口①①口 |①---|
口③③口 |②---|
口②②口 |③---|
口④④口 |④---|
57
口口口④ |①---|
口口口③ |②---|
口口口② |③---|
口口口① |④---|
58
①口口④ |①---|
口口口口 |②---|
口口口口 |③---|
②口口③ |④---|
59
口①口口 |①---|
口口②口 |②---|
口③口口 |③---|
口口④口 |④---|
60
①口口① |①---|
③口口③ |②---|
②口口② |③---|
④口口④ |④---|
61
口①①口 |①---|
口口口口 |--②-|
口口口口 |----|
口②②口 |----|
62
口口口口 |①---|
①口口② |②---|
④口口③ |③---|
口口口口 |④---|
63
口口口① |①---|
②口口口 |②---|
口口口③ |③---|
④口口口 |④---|
64
口①①口 |①---|
口③③口 |②---|
口②②口 |③---|
口④④口 |④---|
65
①口口① |①---|
口口口口 |--②-|
口②②口 |----|
口口口口 |----|
66
①口口④ |①---|
口口口口 |②---|
口口口口 |③---|
②口口③ |④---|
67
口①口口 |①---|
口口②口 |②---|
口③口口 |③---|
口口④口 |④---|
68
①④④① |①---|
口口③口 |②---|
②口口② |③---|
口口口口 |--④-|
69
口口口口 |----|
口口口口 |--①-|
口口口口 |----|
口①①口 |----|
70
口口口口 |①---|
①口口② |②---|
④口口③ |③---|
口口口口 |④---|
71
口口口① |①---|
②口口口 |②---|
口口口③ |③---|
④口口口 |④---|
72
②②①① |①---|
口口口口 |----|
口口口口 |②---|
口口口口 |----|
73
口口②③ |①---|
口①①④ |②---|
口①①口 |③---|
口口口口 |④---|
74
①①口口 |①---|
①①口口 |----|
口口②② |②---|
口口②② |----|
75
口口③③ |①---|
口②②口 |②---|
①①口口 |③---|
④④④④ |④---|

accuracy: 100%
最終更新:2022年03月26日 03:29