アットウィキロゴ
AI
BEMANI Sound Team "Sota F."

ADVANCED

Level: 8
BPM: 190
Notes: 691

1
口口口口 |----|
口口口口 |----|
口口口口 |----|
口口口口 |----|
2
⑦口口⑥ |①-②③|
口③②口 |-④⑤-|
口⑤④口 |⑥---|
①口口口 |⑦---|
3
⑤②②⑤ |①---|
口④④口 |②-③-|
④口口④ |④---|
①③③① |⑤---|
4
口口口口 |①---|
①口口⑦ |②-③-|
口③②口 |④⑤⑥-|
①⑥⑤④ |⑦---|
5
⑦⑥⑤④ |①-②③|
①③②口 |④⑤⑥⑦|
⑪⑩⑨⑧ |⑧⑨⑩⑪|
口口口⑫ |⑫---|
6
⑨⑧⑦⑥ |①②③④|
①②③④ |⑤---|
口口口口 |⑥⑦⑧⑨|
⑤口口⑩ |⑩---|
7
口⑥⑥口 |①---|
②①①③ |②-③-④-|
④①①⑤ |⑤---|
口口口口 |⑥---|
8
①口口① |①---|
口口口口 |②---|
口口④④ |③---|
③③口② |④---|
9
①②③④ |①②③④|
⑤⑥⑦⑧ |⑤⑥⑦⑧|
⑨⑩⑪⑫ |⑨⑩⑪⑫|
⑬⑭⑮⑯ |⑬⑭⑮⑯|
10
①④⑥② |①-②-|
口口③口 |--③-|
口⑤口口 |-④--|
口口口口 |⑤-⑥-|
11
③④口④ |①-②-|
③口口② |③---|
①口口② |④---|
①⑤⑤口 |⑤---|
12
口口①口 |①---|
口②②口 |②---|
②④③② |③④⑤-|
⑥口⑤口 |⑥---|
13
④③②① |①②③④|
⑧⑦⑥⑤ |⑤⑥⑦⑧|
⑫⑪⑩⑨ |⑨⑩⑪⑫|
⑯⑮⑭⑬ |⑬⑭⑮⑯|
14
④③②① |①②③④|
口⑤⑤口 |⑤---|
⑨⑧⑦⑥ |⑥⑦⑧⑨|
口⑩⑩口 |⑩---|
15
⑥⑥⑤⑤ |①---|
②④③① |②-③④|
口⑦⑦口 |⑤-⑥-|
②口口① |⑦---|
16
口④④口 |①---|
口③③① |②---|
②口口② |③---|
口口口口 |④---|
17
⑬⑭⑮⑯ |①②③④|
⑨⑩⑪⑫ |⑤⑥⑦⑧|
⑤⑥⑦⑧ |⑨⑩⑪⑫|
①②③④ |⑬⑭⑮⑯|
18
口⑦⑦口 |①-②-|
口口口口 |③-④-|
④口⑥⑤ |⑤-⑥-|
①口③② |⑦---|
19
①口口② |--①-|
口①②口 |②---|
口④④口 |③---|
口③③口 |④---|
20
口口①⑧ |①-②-|
口⑤④③ |③④⑤-|
⑦⑨口口 |⑥-⑦-|
②口口⑥ |⑧-⑨-|
21
②口①⑦ |①-②-|
口④口⑤ |③-④-|
口口口口 |⑤-⑥-|
⑥口③口 |⑦---|
22
①⑥口⑨ |①-②-|
③④⑤口 |③④⑤-|
⑧口②口 |⑥-⑦-|
口口口⑦ |⑧-⑨-|
23
①④口口 |①---|
口⑥⑥口 |②-③-|
口口⑤③ |④-⑤-|
口②口口 |⑥---|
24
口⑥口② |①-②-|
①口⑨口 |③④⑤-|
口⑧口口 |⑥-⑦-|
③④⑤⑦ |⑧-⑨-|
25
①⑤口② |①-②-|
口口口④ |③-④-|
⑦⑧⑨⑩ |⑤-⑥-|
③口⑥口 |⑦⑧⑨⑩|
26
①⑧口⑦ |①-②-|
③④⑤口 |③④⑤-|
口口口口 |⑥-⑦-|
⑥口⑨② |⑧-⑨-|
27
⑦口口⑦ |①-②-|
③④④② |③-④-|
⑥①①⑤ |⑤-⑥-|
口口口口 |⑦---|
28
口①①口 |①---|
口②②口 |②--③|
口③③口 |----|
④⑤⑥⑦ |④⑤⑥⑦|
29
①②③④ |①②③④|
⑨⑩⑪⑫ |⑤⑥⑦⑧|
⑤⑥⑦⑧ |⑨⑩⑪⑫|
口⑬口口 |⑬---|
30
②④⑨口 |①---②-|
口⑧口口 |③---④-|
口口⑦⑤ |⑤---⑥-|
⑥口③① |⑦⑧⑨-|
31
①口口② |①-②-|
⑤口口⑥ |③-④-|
口⑧⑦口 |⑤-⑥-|
口④③口 |⑦-⑧-|
32
④口①① |①---|
口口①口 |②---|
口口口口 |③---|
②②口③ |④---|
33
口①①口 |①--②|
④⑤⑤② |--③-|
④口口② |-④--|
口③③口 |⑤---|
34
②③⑥⑤ |①-②-|
⑧口口口 |③-④-|
口④①口 |⑤-⑥-|
口口口⑦ |⑦-⑧-|
35
②口口② |①---|
口①①口 |----|
②口口② |----|
口①①口 |②---|
36
口①①口 |①---|
④②②④ |②--③|
口③③口 |----|
口④④口 |④---|
37
④口③⑤ |①---|
口②口口 |②-③-|
⑥口口⑦ |④-⑤-|
①口口① |⑥-⑦-|
38
⑦⑧⑨⑩ |①②③-|
口⑥⑤④ |④⑤⑥-|
口⑪⑪口 |⑦⑧⑨⑩|
①②③口 |⑪---|
39
⑥⑧⑦⑦ |①-②③|
⑥④③② |④-⑤-|
口⑧⑧⑤ |⑥-⑦-|
①①口⑤ |⑧---|
40
口⑤④③ |①---|
口②②① |②---|
口口口口 |③④⑤-|
②口⑥② |⑥---|
41
②④口⑥ |①--②|
口⑥④② |--③-|
⑤口①③ |-④--|
③①口⑤ |⑤-⑥-|
42
⑤⑦①口 |①---|
⑪口⑥④ |②③④⑤|
口③⑧⑩ |-⑥⑦⑧|
口⑨②口 |⑨⑩⑪-|
43
口口①① |①---|
口③②口 |----|
②口口③ |②---|
②③②③ |③---|
44
②口口口 |①---|
口口口口 |--②-|
口①①口 |----|
口口口口 |----|
45
口口口⑤ |①---|
口口口④ |----|
口①①③ |②-③-|
口口口② |④-⑤-|
46
口口④口 |①---|
口口②口 |②--③|
口③口口 |--④-|
口①口口 |----|
47
②口口③ |----|
口口口① |①--②|
口口口口 |--③-|
口口口口 |----|
48
口口口口 |①---|
口②口口 |--②-|
口①①口 |----|
口口口口 |----|
49
口口口口 |①---|
口②②口 |----|
口口口口 |②---|
口③③① |③---|
50
①②③④ |①②③④|
⑨⑩⑪⑫ |⑤⑥⑦⑧|
⑤⑥⑦⑧ |⑨⑩⑪⑫|
⑬⑭⑮口 |⑬⑭⑮-|
51
①口②④ |①---②-|
口⑥⑥口 |③---④-|
口③⑤口 |⑤---|
口口口口 |⑥---|
52
③①口口 |①---|
口口口口 |--②-|
口口口口 |③---|
口口口② |----|
53
口口口⑤ |①-②-|
口口②口 |③-④-|
口④口口 |⑤---|
口①③口 |----|
54
⑦口口⑥ |①-②③|
口③②口 |-④⑤-|
口⑤④口 |⑥---|
①口口口 |⑦---|
55
⑤②②⑤ |①---|
口④④口 |②-③-|
④口口④ |④---|
①③③① |⑤---|
56
⑥口②⑦ |①---|
②口⑤① |②-③-|
④口③④ |④-⑤-|
①口口① |⑥-⑦-|
57
⑦⑥②⑧ |①-②-|
③③口口 |③-④-|
⑤⑤④⑦ |⑤-⑥-|
①口口口 |⑦-⑧-|
58
⑬口口⑭ |①②③④|
⑤⑥⑦⑧ |⑤⑥⑦⑧|
⑨⑩⑪⑫ |⑨⑩⑪⑫|
①②③④ |⑬-⑭-|
59
⑦口④口 |①-②-|
③口③⑥ |③-④-|
⑤口⑦口 |⑤-⑥-|
①口⑧② |⑦-⑧-|
60
⑤⑥⑥① |①---|
②口②⑤ |②---|
③口口④ |③-④-|
①口口③ |⑤-⑥-|
61
③口口① |--①-|
口②口口 |--②-|
口口口口 |----|
①口②口 |③---|
62
⑤口③① |①---|
②口口④ |②---|
③口⑤⑥ |③-④-|
①口口② |⑤-⑥-|
63
⑥口口④ |①-②-|
③口①口 |③-④-|
⑤口口口 |⑤---|
①口②口 |⑥---|
64
⑥口②⑦ |①---|
②口⑤① |②-③-|
④口③④ |④-⑤-|
①口口① |⑥-⑦-|
65
口③③口 |①--②|
②口④口 |--③-|
③⑤⑥口 |④-⑤-|
口①①② |⑥---|
66
⑬口口⑭ |①②③④|
⑤⑥⑦⑧ |⑤⑥⑦⑧|
⑨⑩⑪⑫ |⑨⑩⑪⑫|
①②③④ |⑬-⑭-|
67
⑦口④口 |①-②-|
③口③⑥ |③-④-|
⑤口⑦口 |⑤-⑥-|
①口⑧② |⑦-⑧-|
68
口⑧⑧① |①---|
②③②④ |②---|
口⑤口⑥ |③④⑤⑥|
①⑦口口 |⑦-⑧-|
69
③口口① |--①-|
口②口口 |--②-|
口口口口 |----|
①口②口 |③---|
70
⑤口③① |①---|
②口口④ |②---|
③口⑤⑥ |③-④-|
①口口② |⑤-⑥-|
71
⑥口口④ |①-②-|
③口①口 |③-④-|
⑤口口口 |⑤---|
①口②口 |⑥---|
72
口⑧②口 |①-②-|
⑥⑤④③ |③④⑤⑥|
⑫⑪⑩⑨ |⑦-⑧-|
①口口⑦ |⑨⑩⑪⑫|
73
④③②① |①---|
口口口口 |②---|
口口口口 |③---|
口口口口 |④---|
74
⑨⑦⑧⑩ |①-②-|
①⑦⑧② |③④⑤⑥|
⑪③④⑫ |⑦-⑧-|
①⑤⑥② |⑨⑩⑪⑫|
75
⑤⑤⑤⑤ |①-②-|
①③④② |--③-|
口⑤⑤口 |④---|
①③④② |⑤---|

accuracy: 100%
最終更新:2022年03月31日 10:42