アットウィキロゴ
AI
BEMANI Sound Team "Sota F."

EXTREME

Level: 10.5
BPM: 190
Notes: 853

1
口口口口 |----|
口口口口 |----|
口口口口 |----|
口口口口 |----|
2
④⑧⑨② |①-②③|
⑦⑥⑥⑩ |-④⑤-|
⑤口口③ |⑥---|
口①口口 |⑦⑧⑨⑩|
3
②⑤⑤② |①---|
口④④口 |②-③-|
④①①④ |④---|
③⑤⑤③ |⑤---|
4
口口⑦② |①---|
①口口① |②-③-|
口⑥⑤④ |④⑤⑥-|
③口口口 |⑦---|
5
①⑫口口 |①-②③|
口③②口 |④⑤⑥⑦|
⑪⑩⑨⑧ |⑧⑨⑩⑪|
⑦⑥⑤④ |⑫---|
6
⑥⑨④① |①②③④|
⑦⑧③② |⑤---|
口口口口 |⑥⑦⑧⑨|
⑩⑩⑤⑤ |⑩---|
7
③⑥②① |①---|
⑥⑤⑥② |②-③-④-|
⑤③④① |⑤---|
口口④口 |⑥---|
8
③口④① |①---|
口口口② |②---|
③口④口 |③---|
②口口② |④---|
9
⑫④⑯⑧ |①②③④|
⑪③⑮⑦ |⑤⑥⑦⑧|
⑩②⑭⑥ |⑨⑩⑪⑫|
⑨①⑬⑤ |⑬⑭⑮⑯|
10
⑥②⑥口 |①-②-|
口④口④ |--③-|
口③口③ |-④--|
⑤①⑤口 |⑤-⑥-|
11
口④⑤① |①-②-|
④口①⑤ |③---|
②口③④ |④---|
⑤②口③ |⑤---|
12
①口口① |①---|
口②②口 |②---|
口③④⑤ |③④⑤-|
⑥②②口 |⑥---|
13
③⑦⑥② |①②③④|
④⑧⑤① |⑤⑥⑦⑧|
⑪⑮⑭⑩ |⑨⑩⑪⑫|
⑫⑯⑬⑨ |⑬⑭⑮⑯|
14
③⑤⑤② |①②③④|
④口⑤① |⑤---|
⑧⑩⑩⑦ |⑥⑦⑧⑨|
⑨口⑩⑥ |⑩---|
15
②⑤⑤① |①---|
口口④① |②-③④|
⑥口口⑦ |⑤-⑥-|
⑥③口⑦ |⑦---|
16
②口口② |①---|
④①口③ |②---|
口①①口 |③---|
口④③口 |④---|
17
④⑯⑫⑧ |①②③④|
⑮③⑦⑪ |⑤⑥⑦⑧|
⑭⑥②⑩ |⑨⑩⑪⑫|
⑤⑬⑨① |⑬⑭⑮⑯|
18
④口⑦⑦ |①-②-|
口②口⑤ |③-④-|
口④①口 |⑤-⑥-|
③口⑥① |⑦---|
19
⑥⑥口口 |--①-|
②①②③ |②---|
①②①⑤ |③-④⑤|
口④口③ |⑥---|
20
口口⑥② |①-②-|
口③⑨口 |③④⑤-|
口⑤④⑧ |⑥-⑦-|
口口①⑦ |⑧-⑨-|
21
①口⑦⑦ |①-②-|
口③⑧⑧ |③-④-|
④⑥⑨⑨ |⑤-⑥-|
⑤②⑩⑩ |⑦⑧⑨⑩|
22
①④口⑦ |①-②-|
③口⑧口 |③④⑤-|
⑤⑥口口 |⑥-⑦-|
口②口⑨ |⑧-⑨-|
23
口④①口 |①---|
口⑥⑥① |②-③-|
③⑥⑥口 |④-⑤-|
口②⑤口 |⑥---|
24
口⑥②⑨ |①-②-|
口口口口 |③④⑤-|
③口⑧① |⑥-⑦-|
⑤④口⑦ |⑧-⑨-|
25
⑩⑨⑧⑦ |①-②-|
①③⑤口 |③-④-|
④②口⑥ |⑤-⑥-|
⑭⑬⑫⑪ |⑦⑧⑨⑩⑪⑫⑬⑭|
26
口口⑦口 |①-②-|
②⑧⑤① |③④⑤-|
口④③⑥ |⑥-⑦-|
口口⑨口 |⑧-⑨-|
27
⑦⑦口① |①-②-|
②口④口 |③-④-|
⑥④口⑤ |⑤-⑥-|
①③⑦⑦ |⑦---|
28
口④①口 |①---|
口②⑤① |②--③|
口⑥②口 |----|
③③⑦口 |④⑤⑥⑦|
29
①⑬⑫② |①②③④|
⑤⑪口⑥ |⑤⑥⑦⑧|
③口⑩④ |⑨⑩⑪⑫|
⑦⑨口⑧ |⑬---|
30
②⑥口④ |①---②-|
口口口⑨ |③---④-|
口口⑧口 |⑤---⑥-|
③⑦①⑤ |⑦⑧⑨-|
31
④口③口 |①-②-|
①②口口 |③-④-|
口④口③
②口①口

口⑥口⑦
⑧口⑤口
⑥口⑦口 |⑤-⑥-|
口⑧口⑤ |⑦-⑧-|
32
②④②⑦ |①---|
口①⑤① |②---|
口⑥口口 |③-④⑤|
①口①③ |⑥-⑦-|
33
③⑤③⑥ |①--②|
①②④② |--③-|
③⑤①⑤ |-④--|
④①②④ |⑤-⑥-|
34
口⑥⑨口 |①-②-|
②⑦⑧③ |③-④-|
⑤⑩口口 |⑤-⑥⑦|
口①④口 |⑧⑨⑩-|
35
③⑪⑫④ |①②③④|
⑤⑬⑬⑥ |⑤⑥⑦⑧|
⑦⑬②⑧ |⑨⑩⑪⑫|
⑨①口⑩ |⑬---|
36
①④④② |①---|
②④口④ |②--③|
②④①④ |----|
③③①③ |④---|
37
②口口⑤ |①-②③|
③口①口 |④-⑤-|
④口①口
口口①口

口⑧口口
口口⑨口
口口口口 |⑥-⑦-|
⑦口口⑥ |⑧-⑨-|
38
①⑪⑩⑨ |①②③-|
②②⑪④ |④⑤⑥-|
③③⑤⑤ |⑦⑧⑨⑩|
⑦⑧⑥⑥ |⑪---|
39
②口口口 |①-②③|
口口口③ |④-⑤-|
④①口口
口口口⑤

口⑧⑧⑦
⑥⑨⑨口
口⑩⑩口 |⑥-⑦-|
口⑪⑪口 |⑧⑨⑩⑪|
40
①口⑦④ |①---|
⑤口口② |②-③-|
②口口⑥ |④⑤⑥-|
③口口② |⑦---|
41
③⑤⑤④ |①--②|
口①②口 |--③-|
口②①口 |-④--|
④⑥⑥③ |⑤-⑥-|
42
⑦口口⑥ |①---|
①④⑧② |②③④⑤|
⑤⑨③口 |-⑥⑦-|
口口⑩口 |⑧⑨⑩-|
43
⑩⑧⑦⑨ |①②③④|
④⑨⑩③ |⑤⑥⑦⑧|
⑥⑩⑨⑤ |⑨---|
②口口① |⑩---|
44
口口口口 |①---|
口②口① |--②-|
口口口口 |----|
口①口① |----|
45
①口①口 |①---|
口口口口 |----|
口①口口
口口口口

口口⑤⑤
口口④④
口口③③ |②-③-|
口口②② |④-⑤-|
46
④③口口 |①---|
口③口口 |②--③|
①②口口 |--④-|
①口口口 |----|
47
⑩⑧⑦⑨ |①②③④|
⑩⑥⑤⑨ |⑤⑥⑦⑧|
口④③口 |⑨---|
口②①口 |⑩---|
48
口②②口 |①---|
口②口口 |--②-|
口口①① |----|
口口①口 |----|
49
口②③口 |①---|
②口口③ |----|
⑤口口④ |②-③-|
①⑤④口 |④-⑤-|
50
⑤⑨⑩⑧ |①②③④|
⑪①④⑫ |⑤⑥⑦⑧|
⑬③②⑭ |⑨⑩⑪⑫|
⑦⑮口⑥ |⑬⑭⑮-|
51
②口⑤口 |①---②-|
⑥③⑤⑥ |③---④-|
⑥③①⑥ |⑤---|
④口①口 |⑥---|
52
口①③口 |①---|
口口口口 |--②-|
口口口口 |③---|
口口口② |----|
53
②口⑤口 |①-②-|
④口口口 |③-④-|
口③口口 |⑤---|
口①口口 |----|
54
④⑧⑨② |①-②③|
⑦⑥⑥⑩ |-④⑤-|
⑤口口③ |⑥---|
口①口口 |⑦⑧⑨⑩|
55
②⑤⑤② |①---|
口④④口 |②-③-|
④①①④ |④---|
③⑤⑤③ |⑤---|
56
④⑦⑦② |①---|
①口⑤① |②-③-|
⑥③①口 |④-⑤-|
②⑥口④ |⑥-⑦-|
57
口口口② |①-②-|
①③口口 |③-④-|
口口①④
口口③口

⑤⑦口口
⑧口⑦口
口⑤口口 |⑤-⑥-|
⑥口口口 |⑦-⑧-|
58
⑧⑫④⑬ |①②③④|
⑭⑦⑪③ |⑤⑥⑦⑧|
⑥⑩②⑬ |⑨⑩⑪⑫|
⑭⑤⑨① |⑬-⑭-|
59
⑤⑦④⑧ |①-②-|
口③⑥② |③-④-|
⑤⑥④口 |⑤-⑥-|
⑧口⑦① |⑦-⑧-|
60
口⑧③⑧ |①-②-|
⑥⑦⑧② |③-④-|
口⑤③④ |⑤-⑥-|
口口口① |⑦-⑧-|
61
②口②口 |--①-|
口④④④ |--②-|
口③①② |--③-|
口①口① |④---|
62
口①③① |①---|
①④口⑤ |②---|
③口⑤② |③-④-|
②⑥②口 |⑤-⑥-|
63
⑤①⑤③ |①-②-|
口⑥①口 |③-④-|
⑥④口⑥ |⑤---|
③口⑥② |⑥---|
64
④⑦⑦② |①---|
①口⑤① |②-③-|
⑥③①口 |④-⑤-|
②口口④ |⑥-⑦-|
65
③⑥口③ |①--②|
①①⑤口 |--③-|
口③②② |④-⑤-|
④②①口 |⑥---|
66
⑧⑫④⑬ |①②③④|
⑭⑦⑪③ |⑤⑥⑦⑧|
⑥⑩②⑬ |⑨⑩⑪⑫|
⑭⑤⑨① |⑬-⑭-|
67
⑤⑦④⑧ |①-②-|
口③⑥② |③-④-|
⑤⑥④口 |⑤-⑥-|
⑧口⑦① |⑦-⑧-|
68
口⑩③⑩ |①-②-|
⑤⑥⑩② |③-④-|
⑦⑧③④ |⑤⑥⑦⑧|
⑨口口① |⑨-⑩-|
69
②口②口 |--①-|
口④④④ |--②-|
口③①② |--③-|
口①口① |④---|
70
口①③① |①---|
①④口⑤ |②---|
③口⑤② |③-④-|
②⑥②口 |⑤-⑥-|
71
⑤①⑤③ |①-②-|
③⑥①口 |③-④-|
口④⑥口 |⑤---|
口⑥口② |⑥---|
72
⑨⑫⑥③ |①-②-|
⑩⑪⑤④ |③④⑤⑥|
②口口⑧ |⑦-⑧-|
①口口⑦ |⑨⑩⑪⑫|
73
口口口口 |①---|
口口②③ |②---|
口①①④ |③---|
口①①口 |④---|
74
⑥⑤④③ |①-②-|
②口口口 |③④⑤⑥|
口口口口
口①口口

口口口口
口⑧⑦口
口⑩⑨口 |⑦⑧⑨⑩|
⑭⑬⑫⑪ |⑪⑫⑬⑭|
75
③⑤⑤③ |①-②-|
②④④① |--③-|
②口口① |④---|
口⑤⑤口 |⑤---|

accuracy: 100%
最終更新:2022年03月26日 03:29