アットウィキロゴ
しゃかりきリレーション
ときめきアイドル project 結城秋葉

BASIC

Level: 3
BPM: 167
Notes: 244

1
口口口口 |----|
口口口口 |----|
口口口口 |----|
口口口口 |----|
2
口口口口 |----|
口口口口 |----|
口口口口 |----|
口口口口 |----|
3
口口口口 |①---|
口①①口 |----|
口口口口 |----|
口口口口 |----|
4
口口口口 |①---|
口口口口 |----|
口①①口 |----|
口口口口 |----|
5
口口口口 |①---|
口口口口 |----|
口口口口 |----|
口①①口 |----|
6
口口口口 |①---|
口口口口 |----|
口①①口 |----|
口口口口 |----|
7
口口口口 |①---|
口①①口 |----|
口口口口 |----|
口口口口 |----|
8
口口口口 |①---|
口口口口 |----|
口①①口 |----|
口口口口 |----|
9
口口口口 |①---|
口口口口 |----|
口口口口 |----|
口①①口 |----|
10
①口口① |①---|
口口口口 |----|
口口口口 |②---|
②口口② |----|
11
口口口口 |①---|
口口口口 |----|
口①①口 |----|
口口口口 |----|
12
口口口口 |①---|
口口口口 |----|
口口口口 |----|
口①①口 |----|
13
口口口口 |①---|
口口口口 |----|
②口口口 |②---|
①口口口 |----|
14
②口口口 |①---|
①口口口 |----|
口口口口 |②---|
口口口口 |----|
15
口①口口 |①---|
口②口口 |----|
口口口口 |②---|
口口口口 |----|
16
口口口口 |①---|
口口口口 |----|
口①口口 |②---|
口②②口 |----|
17
口口口口 |①---|
口口口口 |----|
口口口② |②---|
口口口① |----|
18
口口口② |①---|
口口口① |----|
口口口口 |②---|
口口口口 |----|
19
口口①口 |①---|
口口②口 |----|
口口口口 |②---|
口口口口 |----|
20
口口口口 |----|
口口口口 |----|
口口口口 |----|
口口口口 |----|
21
①口口口 |①---|
②口口口 |----|
口口口口 |②---|
口口口口 |----|
22
口口口口 |①---|
口口口口 |----|
①口口口 |②---|
②口口口 |----|
23
口口口口 |①---|
口口口口 |----|
口②口口 |②---|
口①口口 |----|
24
口②口口 |①---|
口①口口 |----|
口口口口 |②---|
口口口口 |----|
25
口口①口 |①---|
口口②口 |----|
口口口口 |②---|
口口口口 |----|
26
口口口口 |①---|
口口口口 |----|
口口①口 |②---|
口口②口 |----|
27
口口口口 |①---|
口口口口 |----|
口口口② |②---|
口口口① |----|
28
口②②口 |①---|
口口口① |----|
口口口口 |②---|
口口口口 |----|
29
②口口② |①---|
口①①口 |----|
口口口口 |②---|
口口口口 |----|
30
口口口口 |①---|
①口口① |----|
口②口口 |②---|
口口口口 |----|
31
口①①口 |①---|
口②②口 |----|
口口口口 |②---|
口口口口 |----|
32
口口口口 |①---|
口口口口 |----|
口①①口 |②---|
口②②口 |----|
33
口口口口 |①---|
口口口口 |----|
①口口口 |----|
口口口口 |----|
34
口口口口 |①---|
口口口口 |----|
口口口① |----|
口口口口 |----|
35
口④口口 |①---|
口口③口 |②---|
口②口口 |③---|
口口①口 |④---|
36
①口口① |①---|
②口口② |----|
口口口口 |②---|
口口口口 |----|
37
口口口口 |①---|
口①①口 |②---|
口②②口 |----|
口口口口 |----|
38
口口口口 |----|
口③口口 |①---|
口①②口 |②---|
口口口口 |③---|
39
①口口① |①---|
④口口④ |②---|
口②③口 |③---|
口口口口 |④---|
40
口口口口 |----|
口口口口 |----|
口口口口 |①---|
口①②口 |②---|
41
④口口④ |①---|
口③口口 |②---|
口①②口 |③---|
口口口口 |④---|
42
口①口口 |----|
口②口口 |----|
口口口口 |①---|
口口口口 |②---|
43
口口②口 |①---|
口口③口 |----|
口①口口 |②---|
口口口口 |③---|
44
口口口口 |①---|
②②③③ |②---|
④④①口 |③---|
口口口口 |④---|
45
口口口口 |①---|
④口口④ |②---|
口口①① |③---|
口②③口 |④---|
46
口口口口 |----|
口③口口 |①---|
口①②口 |②---|
口口口口 |③---|
47
①口口① |①---|
④口口④ |②---|
口②③口 |③---|
口口口口 |④---|
48
口口口口 |----|
口口口口 |----|
口口口口 |①---|
口①②口 |②---|
49
④口口④ |①---|
口③口口 |②---|
口①②口 |③---|
口口口口 |④---|
50
口口口口 |----|
口②①口 |----|
口①②口 |①---|
口口口口 |②---|
51
①口口① |①---|
口口口口 |--②-|
口口口口 |----|
口②②口 |----|
52
口口口口 |①---|
口①口口 |②---|
口口②口 |----|
口口口口 |----|
53
口口口口 |①---|
①口口① |----|
②口口② |②---|
口口口口 |----|
54
口口口口 |①---|
口①①口 |----|
口②②口 |②---|
口口口口 |----|
55
口口口口 |①---|
口口口口 |----|
口口口口 |----|
口①①口 |----|
56
口口口口 |①---|
口口口口 |----|
口口口口 |----|
口①口口 |----|
57
口口口口 |①---|
口口口口 |----|
口口口口 |----|
口口①口 |----|
58
口口口口 |①---|
口口口口 |----|
③①①口 |②---|
口②②口 |--③-|
59
口口口口 |--①-|
口①口③ |--②-|
口口②口 |--③-|
口口口口 |----|
60
口口口口 |----|
口③口口 |①---|
口①②口 |②---|
口口口口 |③---|
61
①口口① |①---|
④口口④ |②---|
口②③口 |③---|
口口口口 |④---|
62
口口口口 |----|
口口口口 |----|
口口口口 |①---|
口①②口 |②---|
63
④口口④ |①---|
口③口口 |②---|
口①②口 |③---|
口口口口 |④---|
64
口①口口 |----|
口②口口 |----|
口口口口 |①---|
口口口口 |②---|
65
口口②口 |①---|
口口③口 |----|
口①口口 |②---|
口口口口 |③---|
66
口口口口 |①---|
②②③③ |②---|
④④①口 |③---|
口口口口 |④---|
67
口口口口 |①---|
④口口④ |②---|
口口①① |③---|
口②③口 |④---|
68
口口口口 |----|
口③口口 |①---|
口①②口 |②---|
口口口口 |③---|
69
①口口① |①---|
④口口④ |②---|
口②③口 |③---|
口口口口 |④---|
70
口口口口 |----|
口口口口 |----|
口口口口 |①---|
口①②口 |②---|
71
④口口④ |①---|
口③口口 |②---|
口①②口 |③---|
口口口口 |④---|
72
口口口口 |----|
口②①口 |----|
口①②口 |①---|
口口口口 |②---|
73
①口口① |①---|
口口口口 |--②-|
口口口口 |----|
口②②口 |----|
74
口口口口 |①---|
口①口口 |②---|
口口②口 |----|
口口口口 |----|
75
口口口口 |①---|
①口口① |----|
②口口② |②---|
口口口口 |----|
76
口口口口 |①---|
口①①口 |----|
口②②口 |②---|
口口口口 |----|
77
口口口口 |①---|
口口口口 |----|
口口口口 |----|
口①①口 |----|
78
口口口口 |①---|
口口口口 |----|
口口口口 |----|
口①口口 |----|
79
口口口口 |①---|
口口口口 |----|
口口口口 |----|
口口①口 |----|
80
口口口口 |①---|
口口口口 |----|
口口口口 |----|
口口口① |----|
81
口口口口 |①---|
口口口口 |----|
口①①口 |----|
口口口口 |----|
82
①口口① |①---|
口②②口 |--②-|
口②②口 |----|
口口口口 |----|

accuracy: 99.5%
最終更新:2023年06月14日 01:05