アットウィキロゴ
しゃかりきリレーション
ときめきアイドル project 結城秋葉

ADVANCED

Level: 5
BPM: 167
Notes: 405

1
口口口口 |----|
口口口口 |----|
口口口口 |----|
口口口口 |----|
2
口口口口 |----|
口口口口 |----|
口口口口 |----|
口口口口 |----|
3
口口口口 |①---|
①④口① |----|
口②③口 |--②-|
口口口口 |③-④-|
4
口②③口 |①---|
口④①口 |----|
口口口口 |--②-|
口口口口 |③-④-|
5
口口口口 |①---|
口口①口 |----|
口②③口 |--②-|
口④口口 |③-④-|
6
口口口口 |①---|
口口口口 |----|
口口口口 |----|
口口①口 |----|
7
口口口口 |①---|
①④口① |----|
口②③口 |--②-|
口口口口 |③-④-|
8
口②③口 |①---|
口④①口 |----|
口口口口 |--②-|
口口口口 |③-④-|
9
口口口口 |①---|
口口①口 |----|
口②③口 |--②-|
口④口口 |③-④-|
10
口口口口 |--①-|
①口口① |----|
②口口② |--②-|
口口口口 |----|
11
口口口口 |①---|
口口口口 |----|
口口口口 |----|
口①①口 |----|
12
口口口口 |①---|
②口口② |----|
③①①③ |--②-|
④口口④ |③-④-|
13
口口口④ |①-②-|
口③⑥⑤ |③-④-|
口①②口 |--⑤-|
口口口口 |--⑥-|
14
口口口口 |①-②-|
口①口口 |③---|
口③②口
口口口口

口口口口
口⑤④口
口口⑥口 |--④-|
口口口口 |⑤-⑥-|
15
①口口口 |①---|
②口③口 |②---|
口口口口 |----|
口口口口 |--③-|
16
口口口口 |①-②-|
④①口④ |③---|
口③②口 |④---|
⑤口口⑤ |⑤---|
17
口口口④ |①-②-|
口③⑥⑤ |③-④-|
口①②口 |--⑤-|
口口口口 |--⑥-|
18
口口口口 |①-②-|
④①口口 |③---|
⑤③②口 |----|
口口口口 |④-⑤-|
19
口口口口 |①---|
口口口口 |②-③-|
口③②口 |----|
①口口口 |----|
20
口口口口 |----|
口口口口 |----|
口口口口 |----|
口口①口 |--①-|
21
⑤口口⑥ |①-②-|
⑦③④口 |③-④-|
口①②口 |--⑤-|
口口口口 |⑥-⑦-|
22
口口口口 |①-②-|
④⑤⑥① |③---|
②口口③ |--④-|
口口口口 |⑤-⑥-|
23
口口口口 |①-②-|
口口口① |③-④-|
口②③口 |----|
口④口口 |----|
24
口口口口 |----|
①口口① |----|
口口口口 |①---|
②口口② |②---|
25
⑤口口⑥ |①-②-|
⑦④③口 |③-④-|
口②①口 |--⑤-|
口口口口 |⑥-⑦-|
26
口口口口 |①-②-|
口④⑤① |③---|
②⑥口③ |--④-|
口口口口 |⑤-⑥-|
27
口口口口 |①---|
①口口① |②---|
②口口② |----|
口口口口 |----|
28
口口②口 |----|
口①③口 |--①-|
口④口口 |②--③|
口口口口 |--④-|
29
口口③口 |①---|
口②④口 |--②-|
口⑤口口 |③--④|
口口①口 |--⑤-|
30
口口口口 |①---|
②③④口 |--②-|
口口口口 |--③-|
口口①口 |--④-|
31
①口口② |①---|
口口口口 |②---|
口口口口 |③---|
③口口④ |④---|
32
口口口口 |①---|
口①①口 |----|
口口口口
口口口口

口口口口
口③口口
口②②口 |②---|
口口口口 |--③-|
33
口口口① |①-②-|
口口⑦② |③-④-|
口⑥⑤③ |--⑤-|
口口口④ |⑥-⑦-|
34
④⑤口口 |①-②-|
③①口口 |③-④-|
②口口口 |----|
口口口口 |--⑤-|
35
②口口① |①---|
口口口口 |②---|
口口口口 |③---|
④口口③ |④---|
36
口口口口 |①---|
口①①口 |----|
③②②口 |②---|
口口口口 |--③-|
37
口④④口 |①-②-|
②口口③ |③-④-|
口口口① |----|
口口口口 |----|
38
口口口口 |----|
④口口③ |①---|
口口②口 |②---|
口①口口 |③-④-|
39
⑤②①⑤ |--①-|
口④③口 |②-③-|
口口口口 |④---|
口口口口 |⑤---|
40
③口口口 |----|
口①①口 |--①-|
口②②口 |--②-|
口口口口 |--③-|
41
口口口① |①-②-|
②口口③ |③-④-|
④口口⑤ |⑤---|
口⑥⑥口 |⑥---|
42
口口口口 |----|
口口口口 |--①-|
口口⑤④ |②-③-|
①②③口 |④-⑤-|
43
口口⑥⑤ |①---|
②③④口 |--②-|
口①口口 |③-④-|
口口口口 |⑤-⑥-|
44
口①口口 |①---|
②②③③ |②---|
④④口口 |③---|
口口口口 |④---|
45
④口口口 |①---|
⑤②③口 |②-③-|
⑥口①① |--④-|
口口口口 |⑤-⑥-|
46
口口口口 |----|
④口口③ |①---|
口口②口 |②---|
口①口口 |③-④-|
47
⑤②①⑤ |--①-|
口④③口 |②-③-|
口口口口 |④---|
口口口口 |⑤---|
48
③口口口 |----|
口①①口 |--①-|
口②②口 |--②-|
口口口口 |--③-|
49
口口口① |①-②-|
②口口③ |③-④-|
④口口⑤ |⑤---|
口⑥⑥口 |⑥---|
50
口口口口 |----|
口①①口 |----|
口②②口 |①---|
口口口口 |②---|
51
①口口① |①---|
③②②口 |--②-|
口口口口 |----|
口口口口 |--③-|
52
口口口口 |①-②-|
口口口① |③-④-|
②口⑤③ |----|
④口口口 |--⑤-|
53
①口口① |①---|
口口口口 |----|
口口口口 |②---|
②口口② |----|
54
口口口口 |①---|
口口口口 |----|
口①①口 |②---|
口②②口 |----|
55
①①①① |①---|
口④口口 |----|
口②③口 |--②-|
口口口口 |③-④-|
56
口②③口 |①---|
口④①口 |----|
口口口口 |--②-|
口口口口 |③-④-|
57
口口口口 |①---|
口口①口 |----|
口②③口 |--②-|
口④口口 |③-④-|
58
⑦⑦口口 |--①-|
①②③口 |②-③-|
④⑤⑥口 |④-⑤-|
口口口口 |⑥-⑦-|
59
口口口口 |--①-|
口口①① |--②-|
②②口口
口口口口

口口口口
口④④口
口口口口 |--③-|
口口③③ |--④-|
60
口口口口 |----|
④口口③ |①---|
口口②口 |②---|
口①口口 |③-④-|
61
⑤②①⑤ |--①-|
口④③口 |②-③-|
口口口口 |④---|
口口口口 |⑤---|
62
③口口口 |----|
口①①口 |--①-|
口②②口 |--②-|
口口口口 |--③-|
63
口口口① |①-②-|
②口口③ |③-④-|
④口口⑤ |⑤---|
口⑥⑥口 |⑥---|
64
口口口口 |----|
口口口口 |--①-|
口口⑤④ |②-③-|
①②③口 |④-⑤-|
65
口口⑥⑤ |①---|
②③④口 |--②-|
口①口口 |③-④-|
口口口口 |⑤-⑥-|
66
口①口口 |①---|
②②③③ |②---|
④④口口 |③---|
口口口口 |④---|
67
④口口口 |①---|
⑤②③口 |②-③-|
⑥口①① |--④-|
口口口口 |⑤-⑥-|
68
口口口口 |----|
④口口③ |①---|
口口②口 |②---|
口①口口 |③-④-|
69
⑤②①⑤ |--①-|
口④③口 |②-③-|
口口口口 |④---|
口口口口 |⑤---|
70
③口口口 |----|
口①①口 |--①-|
口②②口 |--②-|
口口口口 |--③-|
71
口口口① |①-②-|
②口口③ |③-④-|
④口口⑤ |⑤---|
口⑥⑥口 |⑥---|
72
口口口口 |----|
口①①口 |----|
口②②口 |①---|
口口口口 |②---|
73
①口口① |①---|
③②②口 |--②-|
口口口口 |----|
口口口口 |--③-|
74
口口口口 |①-②-|
口口口① |③-④-|
②口⑤③ |----|
④口口口 |--⑤-|
75
①口口① |①---|
口口口口 |----|
口口口口 |②---|
②口口② |----|
76
口口口口 |①---|
口口口口 |----|
口①①口 |②---|
口②②口 |----|
77
①①①① |①---|
口④口口 |----|
口②③口 |--②-|
口口口口 |③-④-|
78
口②③口 |①---|
口④①口 |----|
口口口口 |--②-|
口口口口 |③-④-|
79
口口口口 |①---|
口口①口 |----|
口②③口 |--②-|
口④口口 |③-④-|
80
口口口口 |①---|
口口口口 |----|
口口口口 |----|
口口①口 |----|
81
②口口口 |①---|
①口口① |----|
①口口① |----|
口口口口 |--②-|
82
口口口① |①-②-|
②④④③ |③-④-|
口④④口 |----|
口口口口 |----|

accuracy: 99.5%
最終更新:2023年06月14日 01:15