アットウィキロゴ
しゃかりきリレーション
ときめきアイドル project 結城秋葉

EXTREME

Level: 7
BPM: 167
Notes: 469

1
口口口口 |----|
口口口口 |----|
口口口口 |----|
口口口口 |----|
2
口口口口 |----|
口口口口 |----|
口口口口 |----|
口①①口 |①---|
3
口口口口 |①---|
①④口① |----|
口口③口 |--②-|
口②口口 |③-④-|
4
口②①口 |①---|
口口③口 |----|
口④口口 |--②-|
口口口口 |③-④-|
5
口口口② |①---|
③口口口 |----|
口口口④ |--②-|
口口①口 |③-④-|
6
口口口口 |①---|
口口口口 |----|
口口口口 |----|
①口口口 |----|
7
口口口口 |①---|
①④口① |----|
口口③口 |--②-|
口②口口 |③-④-|
8
②口①口 |①---|
口口口③ |----|
④口口口 |--②-|
口口口口 |③-④-|
9
口口口口 |①---|
口②口口 |----|
口口③口 |--②-|
口④口① |③-④-|
10
口②①口 |--①-|
②口口① |----|
口口口口 |--②-|
口口口口 |----|
11
口口口口 |①-②-|
口②③⑦ |③-④-|
口④⑤口 |⑤-⑥-|
①⑥口① |--⑦-|
12
⑤口口⑤ |①-②-|
⑥①②⑥ |③-④-|
⑦③④⑦ |--⑤-|
口口口口 |⑥-⑦-|
13
⑤口口④ |①-②-|
口③⑥口 |③-④-|
口①②口 |--⑤-|
口口口口 |--⑥-|
14
口口口口 |①-②-|
口①口④ |③---|
⑤③②口 |--④-|
口口口⑥ |⑤-⑥-|
15
④口口口 |①---|
口③②口 |②-③-|
口口口口 |----|
口①口口 |--④-|
16
口口口口 |①-②-|
①④口⑤ |③---|
②口口口 |④---|
③⑤口④ |⑤---|
17
⑤口口④ |①-②-|
口③⑥口 |③-④-|
口①②口 |--⑤-|
口口口口 |--⑥-|
18
口口口口 |①-②-|
口①口④ |③---|
⑤③②口 |----|
口口口口 |④-⑤-|
19
口口口口 |①---|
口③②口 |②-③-|
口口口口 |----|
口口口① |----|
20
口⑥口⑦ |--①-|
口④口⑤ |②-③-|
口②口③ |④-⑤-|
口口口① |⑥-⑦-|
21
口口口口 |①-②-|
②口①④ |③-④-|
口③口口
口口口口

口⑥⑤口
口口⑦口
口口口口 |--⑤-|
口口口口 |⑥-⑦-|
22
口⑥口口 |①-②-|
口①⑤④ |③---|
口③②口 |--④-|
口口口口 |⑤-⑥-|
23
①口②口 |①-②-|
口③口口 |③-④-|
口口④口 |----|
口口口口 |----|
24
②口口① |----|
口口口口 |----|
口口口口 |①---|
①口口② |②---|
25
⑦口①口 |①-②-|
⑥②口口 |③-④-|
⑤口③口 |--⑤-|
口④口口 |⑥-⑦-|
26
口口口① |①-②-|
口⑥口② |③---|
口口⑤③ |--④-|
口④口口 |⑤-⑥-|
27
口⑥口① |①---|
⑤口口口 |②---|
口④口② |③-④-|
③口口口 |⑤-⑥-|
28
口口口口 |--①-|
④①①口 |--②-|
⑤口②口 |③--④|
口③口口 |--⑤-|
29
口①①口 |①---|
口口口④ |--②-|
口②口⑤ |③--④|
口口③口 |--⑤-|
30
口①①② |①---|
口④③口 |--②-|
⑤口口口 |③-④-|
口口⑥口 |⑤-⑥-|
31
①口口③ |①---|
口口口口 |②---|
口口口口 |③---|
④口口② |④---|
32
口口口口 |①-②-|
口口口口 |----|
口①②⑤ |③-④-|
口③④口 |--⑤-|
33
⑦③④② |①-②-|
⑥口口① |③-④-|
⑤口口口 |--⑤-|
口口口口 |⑥-⑦-|
34
口④③口 |①-②-|
口②①口 |③-④-|
口口⑤口 |----|
口口口口 |--⑤-|
35
①口口② |①---|
③①②④ |②---|
口③④口 |③---|
口口口口 |④---|
36
①口口① |①---|
口②③口 |--②-|
口口口口 |③---|
口口口④ |--④-|
37
口④④口 |①-②-|
③口口口 |③-④-|
口②①口
口口口口

口口口口
口⑥⑤口
口口⑦口 |--⑤-|
口口口口 |⑥-⑦-|
38
口口④④ |----|
③口口口 |①---|
②口口口 |②---|
①口口口 |③-④-|
39
口口口口 |--①-|
口口①⑤ |②-③-|
口②口⑥ |④---|
口④③口 |⑤-⑥-|
40
口口口③ |----|
①①口口 |--①-|
②②口口 |--②-|
口口口口 |--③-|
41
口口①口 |①-②-|
③②口⑥ |③-④-|
口口④⑦ |⑤---|
口⑤口口 |⑥-⑦-|
42
口口口口 |----|
口口⑤④ |--①-|
③口口口 |②-③-|
①②口口 |④-⑤-|
43
口⑤口⑥ |①---|
口口④口 |--②-|
口③口① |③-④-|
口口②口 |⑤-⑥-|
44
③口③口 |①---|
①④口④ |②---|
口口口口 |③---|
口②②口 |④---|
45
口口口口 |①---|
口口③口 |②-③-|
①②①口
口口口口

④口口口
⑤口口口
⑥口口口 |--④-|
口口口口 |⑤-⑥-|
46
④④口口 |----|
口口口③ |①---|
口口口② |②---|
口口口① |③-④-|
47
口口口口 |--①-|
⑤①口口 |②-③-|
⑥口②口 |④---|
口③④口 |⑤-⑥-|
48
③口口口 |----|
口口①① |--①-|
口口②② |--②-|
口口口口 |--③-|
49
口①口口 |①-②-|
口口②③ |③-④-|
口④口口
口口口口

⑥口口⑦
口⑥⑦口
口口⑤口 |⑤---|
口口口口 |⑥-⑦-|
50
①口口② |----|
口口口口 |----|
口口口口 |①---|
②口口① |②---|
51
⑤①③口 |①---|
①口口③ |②-③-|
口②④口 |--④-|
口口口口 |--⑤-|
52
口口口口 |①-②-|
⑤①②口 |③-④-|
口③④口 |----|
口口口口 |--⑤-|
53
④④①① |①---②-|
⑤⑤②② |--③---|
⑥⑥③③ |④---⑤-|
口口口口 |--⑥---|
54
②③③② |①---|
口口口口 |②---|
口口口口 |③---|
④①①④ |④---|
55
口口口口 |①---|
口①口④ |----|
③①口口 |--②-|
口①①② |③-④-|
56
①口②口 |①---|
口③口口 |----|
口口④口 |--②-|
口口口口 |③-④-|
57
口口口口 |①---|
口口口② |----|
③口口口 |--②-|
口①口④ |③-④-|
58
⑦口⑥口 |--①-|
口⑤④口 |②-③-|
口③②口 |④-⑤-|
口①口口 |⑥-⑦-|
59
⑧①口⑧ |①-②-|
口口③② |③-④-|
④⑤口口 |⑤-⑥-|
口口⑦⑥ |⑦-⑧-|
60
口口口④ |----|
③口口口 |①---|
②口口口 |②---|
①口口口 |③-④-|
61
口口口口 |--①-|
口口①⑤ |②-③-|
口②口⑥ |④---|
口④③口 |⑤-⑥-|
62
口口口③ |----|
①口口口 |--①-|
②口口口 |--②-|
口口口口 |--③-|
63
口口①口 |①-②-|
③②口⑥ |③-④-|
口口④⑦ |⑤---|
口⑤口口 |⑥-⑦-|
64
口口口口 |----|
口口⑤④ |--①-|
③口口口 |②-③-|
①②口口 |④-⑤-|
65
口⑤口⑥ |①---|
口口④口 |--②-|
口③口① |③-④-|
口口②口 |⑤-⑥-|
66
③口③口 |①---|
①④口④ |②---|
口口口口 |③---|
口②②口 |④---|
67
口口口口 |①---|
口口③口 |②-③-|
①②①口
口口口口

④口口口
⑤口口口
⑥口口口 |--④-|
口口口口 |⑤-⑥-|
68
④④口口 |----|
口口口③ |①---|
口口口② |②---|
口口口① |③-④-|
69
口口口口 |--①-|
⑤①口口 |②-③-|
⑥口②口 |④---|
口③④口 |⑤-⑥-|
70
③口口口 |----|
口口①① |--①-|
口口②② |--②-|
口口口口 |--③-|
71
口①口口 |①-②-|
口口②③ |③-④-|
口④口口
口口口口

⑥口口⑦
口⑥⑦口
口口⑤口 |⑤---|
口口口口 |⑥-⑦-|
72
①口口② |----|
口口口口 |----|
口口口口 |①---|
②口口① |②---|
73
⑤①③口 |①---|
①口口③ |②-③-|
口②④口 |--④-|
口口口口 |--⑤-|
74
口口口口 |①-②-|
⑤①②口 |③-④-|
口③④口 |----|
口口口口 |--⑤-|
75
④④①① |①---②-|
⑤⑤②② |--③---|
⑥⑥③③ |④---⑤-|
口口口口 |--⑥---|
76
口②②口 |①---|
口口口口 |----|
口口口口 |②---|
口①①口 |----|
77
口口口口 |①---|
④①口口 |----|
口①口③ |--②-|
②①①口 |③-④-|
78
口②口① |①---|
口口③口 |----|
口④口口 |--②-|
口口口口 |③-④-|
79
口口口② |①---|
③口口口 |----|
口口口④ |--②-|
口口①口 |③-④-|
80
口口口口 |①---|
口口口口 |----|
口口口口 |----|
①口口口 |----|
81
①口口① |①-②-|
口②③⑦ |③-④-|
口④⑤口 |⑤-⑥-|
口⑥口口 |--⑦-|
82
口口口口 |①-②-|
①④④口 |③-④-|
③④④② |----|
口口口口 |----|

accuracy: 99.5%
最終更新:2023年06月14日 01:27