アットウィキロゴ
闘え! ダダンダーン V
ときめきアイドル project

BASIC

Level: 2
BPM: 176
Notes: 170

1
口口口口 |----|
口口口口 |----|
口口口口 |----|
口口口口 |----|
2
口口口口 |①---|
①②口口 |----|
口口口口 |②---|
口口口口 |----|
3
口口口口 |①---|
口口①② |----|
口口口口 |②---|
口口口口 |----|
4
口口口口 |①---|
口口口口 |----|
口口②① |②---|
口口口口 |----|
5
口口口口 |①---|
口口口口 |----|
②①口口 |②---|
口口口口 |----|
6
口口口口 |①---|
①②口口 |----|
口口口口 |②---|
口口口口 |----|
7
口口口口 |①---|
口口①② |----|
口口口口 |②---|
口口口口 |----|
8
口口口口 |①---|
口口口口 |----|
口口②① |②---|
口口口口 |----|
9
口口口口 |①---|
口口口口 |----|
②①口口 |②---|
口口口口 |----|
10
口口口口 |①---|
口①口口 |----|
口口口口 |----|
口口口口 |----|
11
口口口口 |①---|
口口①口 |----|
口口口口 |----|
口口口口 |----|
12
口口口口 |①---|
口口口口 |----|
口①口口 |----|
口口口口 |----|
13
口口口口 |①---|
口口口口 |----|
口口①口 |----|
口口口口 |----|
14
口口口口 |①---|
①②口口 |----|
口口口口 |②---|
口口口口 |----|
15
口口口口 |①---|
口口①② |----|
口口口口 |②---|
口口口口 |----|
16
口口②① |①---|
口口口口 |----|
口口口口 |②---|
口口口口 |----|
17
口口口口 |①---|
口①①口 |----|
口口口口 |----|
口口口口 |----|
18
口口口口 |①---|
①口口① |----|
口口口口 |----|
口口口口 |----|
19
口口口口 |①---|
口口口口 |----|
口①①口 |----|
口口口口 |----|
20
口口口口 |①---|
①口口① |----|
口口口口 |----|
口口口口 |----|
21
口口口口 |①---|
口口口口 |----|
口①①口 |----|
口口口口 |----|
22
口口口口 |①---|
口口②① |----|
口口口口 |②---|
口口口口 |----|
23
口口口口 |①---|
②①口口 |----|
口口口口 |②---|
口口口口 |----|
24
①②口口 |①---|
口口口口 |----|
口口口口 |②---|
口口口口 |----|
25
口口口口 |①---|
口①①口 |----|
口口口口 |----|
口口口口 |----|
26
口口口口 |----|
口口口口 |----|
口口口口 |----|
口口口口 |----|
27
口口口口 |①---|
口口口口 |----|
口口口口 |----|
口①①口 |----|
28
口口口口 |①---|
口口口口 |----|
口①①口 |----|
口口口口 |----|
29
口口口口 |①---|
口①①口 |----|
口口口口 |----|
口口口口 |----|
30
口①①口 |①---|
口口口口 |----|
口口口口 |----|
口口口口 |----|
31
①口口① |①---|
口口口口 |----|
口口口口 |----|
口口口口 |----|
32
口口口口 |①---|
①口口① |----|
口口口口 |----|
口口口口 |----|
33
口口口口 |①---|
口口口口 |----|
①口口① |----|
口口口口 |----|
34
口口口口 |①---|
口口口口 |----|
口口口口 |----|
①口口① |----|
35
口口口口 |①---|
口口口口 |----|
口①②口 |②---|
口口口口 |----|
36
口口口口 |①---|
①②②① |----|
口口口口 |②---|
口口口口 |----|
37
口口口口 |①---|
口口口口 |----|
口①②口 |②---|
口口口口 |----|
38
口口口口 |①---|
①②②① |----|
口口口口 |②---|
口口口口 |----|
39
①口口② |①---|
③口口④ |②---|
口口口口 |③---|
口口口口 |④---|
40
④口口④ |①---|
口口口口 |②---|
①口口② |③---|
口③③口 |--④-|
41
口口口口 |----|
口口口口 |----|
口口口口 |----|
口口口口 |----|
42
口口口口 |----|
口口口口 |----|
口口口口 |----|
口口口口 |----|
43
口口口口 |----|
口口口口 |----|
口口口口 |----|
口口口口 |----|
44
口口口口 |----|
口口口口 |----|
口口口口 |----|
口口口口 |----|
45
口口口口 |①---|
①②口口 |----|
口口口口 |②---|
口口口口 |----|
46
口口口口 |①---|
口口①② |----|
口口口口 |②---|
口口口口 |----|
47
口口口口 |①---|
口口口口 |----|
口口②① |②---|
口口口口 |----|
48
口口口口 |①---|
口口口口 |----|
②①口口 |②---|
口口口口 |----|
49
口口口口 |①---|
口①口口 |----|
口口口口 |----|
口口口口 |----|
50
口口口口 |①---|
口口①口 |----|
口口口口 |----|
口口口口 |----|
51
口口口口 |①---|
口口口口 |----|
口①口口 |----|
口口口口 |----|
52
口口口口 |①---|
口口口口 |----|
口口①口 |----|
口口口口 |----|
53
口口口口 |①---|
①②口口 |----|
口口口口 |②---|
口口口口 |----|
54
口口口口 |①---|
口口①② |----|
口口口口 |②---|
口口口口 |----|
55
口口②① |①---|
口口口口 |----|
口口口口 |②---|
口口口口 |----|
56
口口口口 |①---|
口①①口 |----|
口口口口 |----|
口口口口 |----|
57
口口口口 |①---|
①口口① |----|
口口口口 |----|
口口口口 |----|
58
口口口口 |①---|
口口口口 |----|
口①①口 |----|
口口口口 |----|
59
口口口口 |①---|
①口口① |----|
口口口口 |----|
口口口口 |----|
60
口口口口 |①---|
口口口口 |----|
口①①口 |----|
口口口口 |----|
61
口口口口 |①---|
口口②① |----|
口口口口 |②---|
口口口口 |----|
62
口口口口 |①---|
②①口口 |----|
口口口口 |②---|
口口口口 |----|
63
①②口口 |①---|
口口口口 |----|
口口口口 |②---|
口口口口 |----|
64
口口口口 |①---|
口①①口 |----|
口口口口 |----|
口口口口 |----|
65
口口口口 |①---|
口口口口 |----|
口口口口 |----|
口①①口 |----|
66
口口口口 |①---|
口口口口 |----|
口①①口 |----|
口口口口 |----|
67
口口口口 |①---|
口①①口 |----|
口口口口 |----|
口口口口 |----|
68
口①①口 |①---|
口口口口 |----|
口口口口 |----|
口口口口 |----|
69
①口口① |①---|
口口口口 |----|
口口口口 |----|
口口口口 |----|
70
口口口口 |①---|
①口口① |----|
口口口口 |----|
口口口口 |----|
71
口口口口 |①---|
口口口口 |----|
①口口① |----|
口口口口 |----|
72
口口口口 |①---|
口口口口 |----|
口口口口 |----|
①口口① |----|
73
口口口口 |①---|
口口口口 |----|
口①②口 |②---|
口口口口 |----|
74
口口口口 |①---|
①②②① |----|
口口口口 |②---|
口口口口 |----|
75
口口口口 |①---|
口口口口 |----|
口①②口 |②---|
口口口口 |----|
76
口口口口 |①---|
①②②① |----|
口口口口 |②---|
口口口口 |----|
77
①口口② |①---|
③口口④ |②---|
口口口口 |③---|
口口口口 |④---|
78
④口口④ |①---|
口口口口 |②---|
①口口② |③---|
口③③口 |--④-|
79
口口口口 |----|
口口口口 |----|
口口口口 |----|
口口口口 |----|
80
口口口口 |①---|
口①①口 |----|
口口口口 |----|
口口口口 |----|
81
口口口口 |①---|
①口③口 |--②-|
口②口口 |----|
口口口口 |③---|
82
口口口口 |--①-|
口口口口 |----|
口口口① |----|
口口口口 |----|
83
口口口口 |----|
口口口口 |----|
口口口口 |----|
口口口口 |----|
84
口口口口 |①---|
口①②口 |②---|
口③④口 |③---|
口口口口 |④---|
85
①①①① |----|
口口口口 |--①-|
口口口口 |----|
口口口口 |----|

accuracy: 99.5%
最終更新:2023年01月17日 12:18