アットウィキロゴ
闘え! ダダンダーン V
ときめきアイドル project

ADVANCED

Level: 6
BPM: 176
Notes: 529

1
口口口口 |----|
口口口口 |----|
口口口口 |----|
口口口口 |----|
2
口⑦②⑧ |①-②-|
③口⑥口 |③-④-|
口⑤口口 |⑤-⑥-|
口①④口 |⑦-⑧-|
3
口口口口 |--①-|
①口口口 |②-③-|
口③②口 |④-⑤-|
⑦⑤④⑥ |⑥-⑦-|
4
⑤口口④ |①-②-|
口①⑥⑧ |③-④-|
口③②口 |⑤-⑥-|
口⑦口口 |⑦-⑧-|
5
③③口口 |--①-|
口②口口 |②-③-|
口口①口 |----|
口口口口 |----|
6
⑧口⑦口 |①-②-|
②⑥③口 |③-④-|
口口①⑤ |⑤-⑥-|
口④口口 |⑦-⑧-|
7
口口口口 |--①-|
口口口① |②-③-|
口②③口 |④-⑤-|
⑥④⑤⑦ |⑥-⑦-|
8
④口口⑤ |①-②-|
⑧⑥①口 |③-④-|
口②③口 |⑤-⑥-|
口口⑦口 |⑦-⑧-|
9
口口③③ |--①-|
口口②口 |②-③-|
口①口口 |----|
口口口口 |----|
10
口口口口 |①-②-|
③③④⑤ |--③-|
口①⑥口 |--④-|
口②口口 |⑤-⑥-|
11
口口③③ |①-②-|
口口口口 |--③-|
口口口① |----|
口口②口 |----|
12
口口口口 |①-②-|
⑦⑤⑥⑦ |③-④-|
口③④口 |⑤-⑥-|
口①②口 |--⑦-|
13
口口口口 |----|
口口口口 |----|
口口口口 |----|
口口口口 |----|
14
①①④④ |①---|
口口口口 |②-③-|
口②③口 |----|
口口口口 |--④-|
15
①①口口 |--①-|
口口口口 |②-③-|
口②③口 |----|
口口口口 |----|
16
口①①口 |①---|
口口口口 |②-③-|
口②③口
口口口口

⑥⑥口口
口口口口
口口口口 |④-⑤-|
口④⑤口 |--⑥-|
17
口口口口 |--①-|
口①②③ |②-③-|
⑦⑥⑤④ |④-⑤-|
口口口口 |⑥-⑦-|
18
⑤口口④ |①-②-|
③⑤④③ |--③-|
口口口口 |--④-|
口①②口 |⑤---|
19
口口口口 |①---|
口口口口 |----|
①①①① |----|
口口口口 |----|
20
口口口口 |①-②-|
⑦①②⑦ |③-④-|
口③④口 |⑤-⑥-|
口⑤⑥口 |--⑦-|
21
口口口口 |----|
口口口口 |----|
口口口口 |----|
口口口口 |----|
22
④④①① |①---|
口口口口 |②-③-|
口③②口 |----|
口口口口 |--④-|
23
口口①① |--①-|
④口口④ |②-③-|
口③②口 |----|
口口口口 |--④-|
24
口口口口 |--①-|
口①②口 |②-③-|
⑥③④⑥ |④-⑤-|
口⑤口口 |--⑥-|
25
①口口⑥ |①---|
口②③口 |②-③-|
口④⑤口 |--④-|
口口口口 |⑤-⑥-|
26
口口口口 |--①-|
口①②口 |②---|
口③④⑤ |③-④-|
口口口口 |⑤---|
27
口口口口 |----|
①口③④ |①-②-|
口②口口 |③---|
口口口口 |--④-|
28
口口口口 |①-②-|
口②⑥口 |--③-|
口⑤①④ |--④-|
口③③口 |⑤-⑥-|
29
口③口② |①---|
①③口② |②-③-|
口④⑤口 |----|
口口口口 |④-⑤-|
30
口口口口 |①-②-|
⑦口口⑧ |③-④-|
⑤口口⑥ |⑤-⑥-|
③①②④ |⑦-⑧-|
31
口口①口 |----|
口②口口 |①-②-|
口⑥③口 |③-④-|
口④⑤口 |⑤-⑥-|
32
口②③口 |①-②-|
口口①③ |----|
⑤口口④ |③--④|
口⑤④口 |--⑤-|
33
②①口口 |①---|
①③④口 |②---|
口⑤⑥口 |③-④-|
口口口口 |⑤-⑥-|
34
口口口口 |--①-|
口⑤④口 |②-③-|
口口⑤④ |----|
口①②③ |④-⑤-|
35
口②③口 |①---|
①③②口 |----|
口①口口 |----|
口口口口 |②-③-|
36
①口口① |----|
②口口② |----|
口③口口 |①--②|
口口口口 |--③-|
37
②口口③ |①---|
口④⑤口 |----|
口口①口 |②-③-|
口口口口 |④-⑤-|
38
口口口口 |----|
口口口口 |----|
口口口口 |----|
口口口口 |----|
39
口口口口 |①-②-|
⑤③④⑥ |③-④-|
①⑦口② |--⑤-|
口口口口 |⑥-⑦-|
40
口口口口 |①---|
口②②口 |②---|
口口①口
口口口口

③口口③
④口口④
⑤⑤⑤⑤ |③-④-|
⑤⑤⑤⑤ |--⑤-|
41
口口口口 |----|
口口口口 |----|
口口口口 |----|
口口口口 |----|
42
口口口口 |--①-|
①口口口 |②-③-|
口③②口 |④-⑤-|
⑦⑤④⑥ |⑥-⑦-|
43
⑤口口④ |①-②-|
口①⑥⑧ |③-④-|
口③②口 |⑤-⑥-|
口⑦口口 |⑦-⑧-|
44
③③口口 |--①-|
口②口口 |②-③-|
口口①口 |----|
口口口口 |----|
45
⑧口⑦口 |①-②-|
②⑥③口 |③-④-|
口口①⑤ |⑤-⑥-|
口④口口 |⑦-⑧-|
46
口口口口 |--①-|
口口口① |②-③-|
口②③口 |④-⑤-|
⑥④⑤⑦ |⑥-⑦-|
47
④口口⑤ |①-②-|
⑧⑥①口 |③-④-|
口②③口 |⑤-⑥-|
口口⑦口 |⑦-⑧-|
48
口口③③ |--①-|
口口②口 |②-③-|
口①口口 |----|
口口口口 |----|
49
口口口口 |①-②-|
③③④⑤ |--③-|
口①⑥口 |--④-|
口②口口 |⑤-⑥-|
50
口口③③ |①-②-|
口口口口 |--③-|
口口口① |----|
口口②口 |----|
51
口口口口 |①-②-|
⑦⑤⑥⑦ |③-④-|
口③④口 |⑤-⑥-|
口①②口 |--⑦-|
52
口口口口 |----|
口口口口 |----|
口口口口 |----|
口口口口 |----|
53
①口⑤⑤ |①-②-|
口②②口 |③-④-|
口③③口 |----|
口④④口 |--⑤-|
54
①①口口 |--①-|
口口口口 |②-③-|
口②③口 |----|
口口口口 |----|
55
口①①口 |①---|
口口口口 |②-③-|
口②③口
口口口口

⑥⑥口口
口口口口
口口口口 |④-⑤-|
口④⑤口 |--⑥-|
56
口口口口 |①-②-|
口①②口 |③-④-|
⑤③④⑥ |⑤-⑥-|
⑦口口⑧ |⑦-⑧-|
57
⑤口口④ |①-②-|
③⑤④③ |--③-|
口口口口 |--④-|
口①②口 |⑤---|
58
口口口口 |①---|
口口口口 |②---|
①①①① |③---|
口②③④ |④---|
59
口口口口 |①-②-|
⑦①②⑦ |③-④-|
口③④口 |⑤-⑥-|
口⑤⑥口 |--⑦-|
60
口口口口 |----|
③②①口 |①---|
口口口口 |②---|
口口口口 |③---|
61
④④①① |①---|
口口口口 |②-③-|
口③②口 |----|
口口口口 |--④-|
62
口口①① |--①-|
④口口④ |②-③-|
口③②口 |----|
口口口口 |--④-|
63
口口口口 |--①-|
口①②口 |②-③-|
⑥③④⑥ |④-⑤-|
口⑤口口 |--⑥-|
64
①②③④ |①-②-|
⑧⑦⑥⑤ |③-④-|
口口口口 |⑤-⑥-|
口口口口 |⑦-⑧-|
65
口口口口 |①---|
口口口口 |②-③-|
③①①口
口②口口

口口口口
口口⑤口
口口⑥④ |④-⑤-|
口口口口 |--⑥-|
66
口⑥②口 |①-②-|
⑤口口① |--③-|
口④口口 |--④-|
口③③口 |⑤-⑥-|
67
口口③② |①---|
口①③② |②-③-|
口④⑤口 |----|
口口口口 |④-⑤-|
68
口口口口 |①-②-|
⑦口口⑧ |③-④-|
⑤口口⑥ |⑤-⑥-|
③①②④ |⑦-⑧-|
69
①口②口 |①---|
口③口口 |②-③-|
口⑦④口 |④-⑤-|
口⑤⑥口 |⑥-⑦-|
70
口口②口 |①---|
①口口② |----|
④口口③ |②--③|
口④③口 |--④-|
71
口①口② |①---|
①③④口 |②---|
口⑤⑥口 |③-④-|
口口口口 |⑤-⑥-|
72
③①②④ |--①-|
口⑥⑤口 |②-③-|
口口⑥⑤ |④---|
口口口口 |⑤-⑥-|
73
口②③口 |①---|
①③②口 |----|
口①口口 |----|
口口口口 |②-③-|
74
①口口① |----|
②口口② |----|
口③口口 |①--②|
口口口口 |--③-|
75
②口口③ |①---|
口④⑤口 |----|
口口①口 |②-③-|
口口口口 |④-⑤-|
76
口口口口 |----|
口口口③ |①---|
口口②口 |②---|
口①口口 |③---|
77
口口口口 |①-②-|
⑤③④⑥ |③-④-|
①⑦口② |--⑤-|
口口口口 |⑥-⑦-|
78
口口口口 |①---|
口②②口 |②---|
口口①口
口口口口

③口口③
④口口④
⑤⑤⑤⑤ |③-④-|
⑤⑤⑤⑤ |--⑤-|
79
口口口口 |----|
口口口口 |----|
口口口口 |----|
口口口口 |----|
80
口口口口 |①---|
口①①口 |----|
口口口口 |----|
口口口口 |----|
81
②③口① |①---|
④口口口 |②-③-|
口口口④ |----|
①口③② |④---|
82
④⑤口③ |①-②-|
口口①② |----|
②①口口 |----|
口口口口 |③--④-⑤|
83
口口①口 |-①-②-③|
②③④口 |-④-⑤-⑥|
⑤⑥⑦口 |-⑦-⑧-⑨|
⑧⑨⑩口 |-⑩----|
84
口口口口 |①-②-|
①口口② |③-④-|
③⑤⑥④ |⑤-⑥-|
口⑦⑧口 |⑦-⑧-|
85
①①①① |----|
①①①① |--①-|
口口口口 |----|
口口口口 |----|

accuracy: 99.5%
最終更新:2023年01月17日 12:19