アットウィキロゴ
闘え! ダダンダーン V
ときめきアイドル project

EXTREME

Level: 8
BPM: 176
Notes: 668

1
口口口口 |----|
口口口口 |----|
口口口口 |----|
口口口口 |----|
2
①口口③ |①-②-|
⑤口口⑧ |③-④-|
口⑦口口 |⑤-⑥-|
②口⑥④ |⑦-⑧-|
3
①②③口 |--①②|
口④口口 |③-④-|
口⑦⑥⑤ |⑤⑥⑦-|
口⑨⑧口 |⑧-⑨-|
4
③口口① |①-②-|
口口口口 |③-④-|
口口口口
④口口②

口⑤口⑧
口口口口
⑦口⑥口 |⑤-⑥-|
口口口口 |⑦-⑧-|
5
口③口口 |--①-|
①②③口 |②-③-|
口①口口 |----|
口口口口 |----|
6
③口口① |①-②-|
⑧口口⑤ |③-④-|
口口⑦口 |⑤-⑥-|
④⑥口② |⑦-⑧-|
7
口③②① |--①②|
口口④口 |③-④-|
⑤⑥⑦口 |⑤⑥⑦-|
口⑧⑨口 |⑧-⑨-|
8
①口口③ |①-②-|
口口口口 |③-④-|
口口口口
②口口④

⑧口⑤口
口口口口
口⑥口⑦ |⑤-⑥-|
口口口口 |⑦-⑧-|
9
口口③口 |--①-|
口③②① |②-③-|
口口①口 |----|
口口口口 |----|
10
口口③③ |①-②-|
⑥口口口 |--③-|
④①⑤口 |--④-|
口口②口 |⑤-⑥-|
11
③③口口 |①-②-|
口口①口 |--③-|
口②口口 |----|
口口口口 |----|
12
口口口口 |①-②-|
口①②口 |③-④-|
⑦③④⑦ |⑤-⑥-|
口⑤⑥口 |--⑦-|
13
口口口口 |----|
口口口口 |----|
口口口口 |----|
口口口口 |----|
14
①①口口 |①---|
口④③④ |②-③-|
口②口口 |----|
口口口口 |--④-|
15
口③口③ |--①-|
口口②口 |②-③-|
口①口① |----|
口口口口 |----|
16
①口①口 |①---|
口口口口 |②-③-|
口②③口
口口口口

口口⑥⑥
口④⑤口
口口口口 |④-⑤-|
口口口口 |--⑥-|
17
②口口口 |--①-|
口④⑥口 |②-③-|
③①口口 |④-⑤-|
口⑤⑦口 |⑥-⑦-|
18
③口口③ |①-②-|
⑤口④② |--③-|
口④①⑤ |--④-|
口口口口 |⑤---|
19
口①①口 |①---|
口口口口 |----|
口口口口 |----|
口①①口 |----|
20
口口⑥口 |①-②-|
②口口④ |③-④-|
口⑦⑦⑤ |⑤-⑥-|
口①③口 |--⑦-|
21
口口口口 |----|
口口口口 |----|
口口口口 |----|
口口口口 |----|
22
①①口口 |①---|
口口口口 |②-③-|
口②口口 |----|
口③④④ |--④-|
23
口口①① |--①-|
④口②④ |②-③-|
口口③口 |----|
口口口口 |--④-|
24
口③口口 |--①-|
口口②口 |②-③-|
⑥①口⑥ |④-⑤-|
口⑤④口 |--⑥-|
25
⑥⑥①① |①---|
口口口③ |②-③-|
口口②口 |--④-|
口④⑤口 |⑤-⑥-|
26
口口口口 |①-②-|
③口①④ |③---|
⑦②⑤口 |④-⑤-|
口⑥口口 |⑥-⑦-|
27
口口口口 |----|
口④③口 |①-②-|
口口口② |③---|
口口①口 |--④-|
28
口口口③ |①-②-|
口口④口 |--③-|
①口口⑤ |--④-|
口②⑥口 |⑤-⑥-|
29
②②③③ |①---|
②口口③ |②-③-|
口口口口
口①口口

口口口口
口口④口
口口口口 |----|
口⑤口口 |④-⑤-|
30
口②口口 |----|
口①口口 |--①-|
口③口口 |②-③-|
口口④口 |④---|
31
①口口口 |①---|
①⑦⑤② |②-③-|
⑥口③④ |④-⑤-|
口口口口 |⑥-⑦-|
32
口口口口 |①-②-|
①口口口 |----|
口②口口
口口口口

口④④口
⑤口口⑤
⑤口口⑤ |③--④|
口③③口 |--⑤-|
33
②口口口 |①---|
口①①口 |②---|
口①①口
口口口口

口口④③
口口⑥⑤
口口口口 |③-④-|
口口口口 |⑤-⑥-|
34
口口口③ |--①-|
口①④口 |②-③-|
口⑤⑤② |----|
口口④口 |④-⑤-|
35
②③④⑤ |①-②-|
口①口⑥ |③-④-|
⑧⑦⑦⑧ |⑤-⑥-|
口①口口 |⑦-⑧-|
36
①③②④ |----|
口口口口 |①---|
口口口口 |②--③|
④②③口 |--④-|
37
口③⑥口 |①---|
③④⑤⑥ |②---|
②①①② |③-④-|
口口口口 |⑤-⑥-|
38
口口口口 |--①-|
口口口口 |②-③-|
①口⑦② |④-⑤-|
⑤③④⑥ |⑥-⑦-|
39
③口口口 |①-②-|
②①⑤⑥ |③-④-|
①②⑥⑤ |--⑤-|
口④⑦口 |⑥-⑦-|
40
口①口① |①---|
口口口口 |②---|
口口口口
②口口②

口⑤⑤口
③④③④
④③④③ |③-④-|
口⑤⑤口 |--⑤-|
41
①口口③ |①-②-|
⑥口⑤口 |③-④-|
口口口口 |⑤-⑥-|
②⑦⑧④ |⑦-⑧-|
42
①②③口 |--①②|
口④口口 |③-④-|
口⑦⑥⑤ |⑤⑥⑦-|
口⑨⑧口 |⑧-⑨-|
43
③口口① |①-②-|
口口口口 |③-④-|
口口口口
④口口②

口⑤口⑧
⑦口口口
口口口口 |⑤-⑥-|
口口⑥口 |⑦-⑧-|
44
②口②口 |--①-|
口③④③ |②-③-|
③①③① |----|
口口口口 |④---|
45
③口口① |①-②-|
口⑤口⑥ |③-④-|
口口口口 |⑤-⑥-|
④⑧⑦② |⑦-⑧-|
46
口③②① |--①②|
口口④口 |③-④-|
⑤⑥⑦口 |⑤⑥⑦-|
口⑧⑨口 |⑧-⑨-|
47
①口口③ |①-②-|
口口口口 |③-④-|
口口口口
②口口④

⑧口⑤口
口口口⑦
口口口口 |⑤-⑥-|
口⑥口口 |⑦-⑧-|
48
口②口② |--①-|
③口③口 |②-③-|
①③①③ |----|
口口口口 |----|
49
口②②口 |①-②-|
口①口① |--③-|
口口口口
口③③口

口口口口
口⑥⑥口
⑤口口⑤ |--④-|
口口口④ |⑤-⑥-|
50
口口②① |①-②-|
口口口口 |--③-|
⑤口口口 |④-⑤-|
④口③口 |----|
51
②①①② |①-②-|
④口③④ |③-④-|
口⑧⑤⑥ |⑤-⑥-|
口⑦⑧口 |⑦-⑧-|
52
口口口口 |----|
口②口④ |--①-|
①口③口 |②-③-|
口口口口 |④---|
53
口口⑤⑤ |①-②-|
②口④口 |③-④-|
口③口口 |----|
口①口口 |--⑤-|
54
口口口口 |--①-|
③口③口 |②-③-|
①②①口 |----|
口口口口 |----|
55
①②①口 |①-②-|
口口口口 |③-④-|
口③④口
口口口口

口口⑦⑦
口⑤⑥口
口口口口 |⑤-⑥-|
口口口口 |--⑦-|
56
③①口口 |①-②-|
口⑤⑦口 |③-④-|
④②口口 |⑤-⑥-|
口⑥⑧口 |⑦-⑧-|
57
③口口③ |①-②-|
④口⑤② |--③-|
口⑤①④ |--④-|
口口口口 |⑤---|
58
②①①② |①---|
口③④口 |②---|
口⑤⑥口 |③-④-|
口①①口 |⑤-⑥-|
59
口口⑥口 |①-②-|
②口口④ |③-④-|
口⑦⑦⑤ |⑤-⑥-|
口①③口 |--⑦-|
60
①口口② |①---|
⑤③④⑥ |②---|
口口口口 |③-④-|
口口口口 |⑤-⑥-|
61
①①口② |①---|
⑤④口口 |②-③-|
④⑤口③ |④---|
口口⑥⑥ |⑤-⑥-|
62
①①②口 |--①-|
⑤④口⑥ |②-③-|
④⑤③口 |④---|
口口口⑥ |⑤-⑥-|
63
⑦口口口 |①-②-|
口⑥②口 |③-④-|
⑤⑧③① |⑤-⑥-|
口④②口 |⑦-⑧-|
64
口③②① |①-②-③-|
口⑥⑤④ |④-⑤-⑥-|
口⑨⑧⑦ |⑦-⑧-⑨-|
口⑫⑪⑩ |⑩-⑪-⑫-|
65
①口口② |①---|
①⑥③口 |②-③-|
口口口④ |④-⑤-|
口口⑤口 |--⑥-|
66
③口口口 |①-②-|
口口④口 |--③-|
①口口⑤ |--④-|
口②⑥口 |⑤-⑥-|
67
②②③③ |①---|
②口⑤③ |②-③-|
口④⑥口 |----|
口①口口 |④-⑤⑥|
68
口口口⑦ |①-②③|
②⑥⑧口 |④-⑤-|
③⑨口⑤ |⑥-⑦-|
④口①口 |⑧-⑨-|
69
①口口口 |①---|
①⑦⑤② |②-③-|
⑥口③④ |④-⑤-|
口口口口 |⑥-⑦-|
70
③口口口 |①-②-|
①口口口 |③---|
口②口口
口口口口

口④口口
⑥口口⑤
⑥口口⑤ |④--⑤|
口口④口 |--⑥-|
71
②④①③ |①---|
口⑥口⑤ |②---|
口口口口 |③-④-|
口①口口 |⑤-⑥-|
72
口口口③ |--①-|
①口⑤口 |②-③-|
④⑥⑥② |④---|
口口⑤口 |⑤-⑥-|
73
②③④⑤ |①-②-|
口①口⑥ |③-④-|
⑧⑦⑦⑧ |⑤-⑥-|
口①口口 |⑦-⑧-|
74
口⑤④⑥ |①-②-|
①②③口 |③---|
口口口口 |④--⑤|
⑥④⑤口 |--⑥-|
75
口③⑥口 |①---|
③④⑤⑥ |②---|
②①①② |③-④-|
口口口口 |⑤-⑥-|
76
口口口口 |--①-|
口口口口 |②-③-|
口①②口 |④-⑤-|
⑤③④⑥ |⑥---|
77
③口口口 |①-②-|
②①⑤⑥ |③-④-|
①②⑥⑤ |--⑤-|
口④⑦口 |⑥-⑦-|
78
口①口① |①---|
口口口口 |②---|
口口口口
②口口②

口⑤⑤口
③④③④
④③④③ |③-④-|
口⑤⑤口 |--⑤-|
79
①口口③ |①-②-|
⑤口口⑦ |③-④-|
⑥口口⑧ |⑤-⑥-|
②口口④ |⑦-⑧-|
80
口口口口 |①-②-|
⑥②④⑧ |③-④-|
⑤①③⑦ |⑤-⑥-|
口口口口 |⑦-⑧-|
81
④④①① |①-②-|
口②口口 |③-④-|
口口③口
①①④④

口口⑥口
口口⑤⑤
⑤⑤口口 |----|
口口口口 |⑤-⑥-|
82
③口⑤④ |①-②-|
②②口口 |----|
口口②② |----|
口①口口 |③--④-⑤|
83
口①口口 |-①-②-③|
②③④口 |-④-⑤-⑥|
口⑦⑥⑤ |-⑦-⑧-⑨|
⑧⑨⑩口 |-⑩----|
84
①口口③ |①-②-|
②口口④ |③-④-|
⑤口口⑦ |⑤-⑥-|
⑥口口⑧ |⑦-⑧-|
85
①口口① |----|
①口口① |--①-|
口①①口 |----|
口口口口 |----|

accuracy: 99.5%
最終更新:2023年01月17日 12:19