アットウィキロゴ
ハルイチバン
ときめきアイドル project

EXTREME

Level: 9.0
BPM: 180
Notes(hold): 647(92)

1
④③③④ |①---|
②口口① |②---|
口口口口 |③---|
口②①口 |--④-|
2
口口口口 |----|
口②②口 |--①-|
①口口① |--②-|
口口口口 |----|
3
口口②② |①---|
①③③① |②---|
口口④④ |③---|
口口口口 |④---|
4
①④口② |①---|
口|口③ |②-③-|
口∧口口 |--④-|
口口口口 |----|

口口口口
④―<口
口口口口
口口口口
5
口1②口 |①---|
1③③口 |②---|
④④口口 |③---|
口①①口 |④---|
6
②口④① |①---|
③口|口 |②-③-|
口口∧口 |--④-|
口口口口 |----|

口口口口
口>―④
口口口口
口口口口
7
口②1口 |①---|
③口口1 |②---|
口口口④ |③---|
口①①口 |④---|
8
口口口口 |①---|
口口口④ |②-③-|
口②②④ |--④-|
①③③口 |----|
9
口口口② |①---|
①口口口 |②---|
∧口③口 |③---|
①<口口 |④-⑤-|

④口口口
3⑤口口
口|口口
3∧口口
10
口口①口 |①---|
口2③口 |②---|
口④口② |③---|
口口口口 |④---|
11
口②③③ |①---|
②口口口 |②---|
口口口口 |③-④-|
①口口口 |----|

口口口口
口口④④
口口||
口口∧∧
12
①②口口 |①---|
口口11 |②---|
口①③口 |③---|
口口口④ |④---|
13
②②①口 |①---|
口口口① |②-③-|
口口口口 |----|
口口口口 |④---|

口口口④
③③口口
||口④
∧∧口口

口口口口
44口口
口口口口
口口口口
14
③③②口 |①---|
口口④④ |②---|
口口口口 |③---|
口①①口 |④---|
15
口口口口 |①---|
口口口口 |----|
①①口口 |②---|
∧∧口口 |③---|

口②②口
口口口③
22口口
口口口口
16
口口口口 |①---|
①口口口 |②---|
口③②口 |③---|
口口口口 |④-⑤-|

④口口口
⑤――<
口口口口
口口口口
17
口⑤③② |①---|
4口口口 |--②-|
口⑤③② |--③-|
口口①① |④-⑤-|
18
口口口口 |①-②-|
口②⑤① |③-④-|
⑧口口③ |⑤-⑥-|
⑥④⑦口 |⑦-⑧-|
19
口④①① |①-②-|
②②⑤口 |③-④-|
口⑥③③ |⑤-⑥-|
口口⑦口 |⑦-⑧-|

口口⑧口
口口口口
口口口口
口口口口
20
③口口② |①---|
口①口口 |②---|
④③②④ |③---|
口口口口 |④---|
21
口口⑤② |①---|
①∨③⑤ |②-③-|
||口口 |④---|
∧④口口 |⑤---|

口口口口
3口口口
口口口口
口口口口
22
口∨口⑤ |①---|
∨①②口 |②-③-|
|口③⑤ |④---|
④1口④ |⑤-⑥-|

口口口口
口3口口
口口口口
6口口口
23
①①④口 |①-②-|
口⑤②② |③-④-|
③③⑥口 |⑤-⑥-|
口⑦口口 |⑦-⑧-|

口⑧口口
口口口口
口口口口
口口口口
24
④口②口 |①---|
口口①口 |②-③-|
③口⑤口 |--④-|
口口口口 |⑤---|
25
口口⑤② |①---|
①∨③⑤ |②-③-|
||口口 |④---|
∧④口口 |⑤---|

口口口口
3口口口
口口口口
口口口口
26
口∨口口 |①---|
口①②口 |②-③-|
口口③口 |④-⑤-|
口1口口 |⑥-⑦-|

口>―⑦
口3口⑥
口口口⑤
④―<④

口口口口
口口口口
口口口口
7口口口
27
③―<4 |--①-|
②>―⑦ |②-③-|
①口⑥口 |④-⑤-|
口口口⑤ |⑥-⑦-|
28
1口口口 |①-②-|
④―<3 |③-④-|
口③口口 |⑤---|
②口口口 |⑥---|

口口⑤⑤
6⑥⑥口
口口口口
口口口口
29
口②口口 |①---|
口④④③ |②---|
②口①① |③---|
口口③口 |④---|
30
①<>① |①---|
口口口口 |②---|
口①①口 |③---|
口口口口 |④---|

2④④2
口口口口
口口口口
口③③口
31
④⑦⑦口 |①-②-|
口③口⑤ |③-④-|
口口②⑥ |⑤-⑥-|
口口口① |--⑦-|
32
口⑦⑦④ |①-②-|
⑤口③口 |③-④-|
⑥②口口 |⑤-⑥-|
①口口口 |--⑦-|
33
⑧口口⑦ |①-②-|
口⑥⑤口 |③-④-|
口④③口 |⑤-⑥-|
②口口① |⑦-⑧-|
34
口③②口 |①---|
口口口口 |②---|
③④④② |③---|
①①①① |④---|
35
①<口② |①---|
①<③口 |②---|
口口口口 |③---|
口口口口 |④-⑤-|

3口口口
3口口口
口④>⑤
口④>⑤
36
口③③口 |①---|
口②口口 |②---|
①④④2 |③---|
口口口2 |④---|
37
②口>① |①---|
口③>① |②---|
口口口口 |③---|
口口口口 |④-⑤-|

口口口3
口口口3
⑤<④口
⑤<④口
38
口③④口 |①---|
③口②④ |②---|
2口口① |③---|
2口口口 |④---|
39
口口口口 |①---|
口③③口 |②---|
②④④① |③---|
口②①口 |④---|
40
①③口① |①---|
口口④口 |②---|
②④口② |③---|
口口③口 |④---|
41
②口①① |①---|
∨③口口 |②---|
|口④口 |③---|
①①―< |④---|
42
口②②∨ |①---|
③③口| |②---|
口口口| |③---|
11口① |④---|

口口口口
口口④④
口口口口
口口口4
43
①口口② |①-②-|
⑤⑥⑦⑧ |③-④-|
③口口④ |⑤-⑥-|
口口口口 |⑦-⑧-|
44
①口口口 |①---|
∧口口口 |②---|
口①口口 |③---|
口∧口口 |④---|

2③③口
口口口口
口2②②
口④④口
45
②口口① |①-②-|
⑧⑦⑥⑤ |③-④-|
④口口③ |⑤-⑥-|
口口口口 |⑦-⑧-|
46
口口口① |①---|
口口口∧ |②---|
口口①口 |③---|
口口∧口 |④---|

口③③2
口口口口
②②2口
口④④口
47
④口口③ |①---|
①④③① |②---|
口③④口 |③---|
②口口② |④---|
48
④②口③ |①---|
②④③① |②---|
②③④① |③---|
口口①口 |④---|
49
口口口⑥ |①---|
②⑤口⑥ |②-③-|
口③口∨ |④---|
④>①① |⑤-⑥-|
50
②③④口 |①-②-|
②口口口 |③---|
③⑤⑤④ |④---|
口口11 |⑤---|
51
①<口② |①---|
①<③口 |②---|
口口口口 |③---|
口口口口 |④-⑤-|

3口口口
3口口口
口④>⑤
口④>⑤
52
口③③口 |①---|
口②口口 |②---|
①④④2 |③---|
口口口2 |④---|
53
②口>① |①---|
口③>① |②---|
口口口口 |③---|
口口口口 |④-⑤-|

口口口3
口口口3
⑤<④口
⑤<④口
54
口③④口 |①---|
③口②④ |②---|
2口口① |③---|
2口口口 |④---|
55
口口口口 |①---|
口③③口 |②---|
②④④① |③---|
口②①口 |④---|
56
口③②口 |①---|
口口④口 |----|
②口口③ |②---③-|
①④口① |--④---|
57
口口口口 |①---|
①口口 |②-③-|
口口口口 |④---|
口口①< |----|

口口∨口
④2|③
∧口④口
口口2口
58
口口口口 |①---|
1口口口 |②---|
口①2口 |③---|
口∧口口 |④---|

口③③口
口④④口
口口口口
口口口口
59
②口口① |①-②-|
⑧⑦⑥⑤ |③-④-|
④1口③ |⑤-⑥-|
口口口口 |⑦-⑧-|
60
口口口① |①---|
口口口∧ |②---|
口口①口 |③---|
口口∧口 |④---|

口③③2
口口口口
②②2口
口④④口
61
①口口② |①-②-|
⑤⑥⑦⑧ |③-④-|
③口口④ |⑤-⑥-|
口口口口 |⑦-⑧-|
62
①口口口 |①---|
∧口口口 |②---|
口①口口 |③---|
口∧口口 |④---|

2④口③
口③口④
口2②②
口口口口
63
口口口口 |①---|
口口口口 |②---|
口口口∨ |③---|
口>①① |④---|

∨口④口
③口口口
③口口口
∧口22
64
口口口② |①---|
1口③口 |②---|
1④口① |③---|
口口口口 |④---|
65
∨②口口 |①---|
|口口③ |----|
|口口口 |②---|
①口口口 |③---|
66
口③口口 |①---|
口口④口 |②---|
口①口口 |③---|
口口口② |④---|
67
口④口∨ |①---|
②口口| |②---|
口③口① |③---|
1口口口 |④---|
68
②口口口 |①---|
口③口口 |②---|
①口④1 |③---|
口口口口 |④---|
69
口④口∨ |①---|
②口口| |②-③-|
⑤口口| |--④-|
①③口① |⑤---|

口口口口
口口口口
口口口口
口口口5
70
①口口① |①---|
口口口口 |②-③-|
④②②④ |--④-|
⑤③③⑤ |⑤---|
71
∨③②∨ |①---|
①①①① |----|
口⑤④口 |②-③-|
口口口口 |④-⑤-|
72
口③②口 |①---|
口①①口 |----|
口口口口 |②---|
口口口口 |③---|
73
口口口口 |①---|
口口③口 |--②-|
口②口口 |----|
口口①口 |③---|
74
口∨口② |①---|
1①口1 |②---|
口口口口 |③-④-|
口口口口 |⑤-⑥-|

口④口口
口3⑤口
口⑥口③
口口口口
75
口口口口 |①---|
―③口 |--②-|
②―<口 |----|
口>①口 |③---|

口口口口
口口口口
3口口口
口口2口
76
∨①<② |①---|
①口1口 |②---|
口口口口 |③-④-|
口口口口 |⑤-⑥-|

口3口口
3⑥口口
口口⑤③
口④口口
77
②口①口 |①---|
口口>④ |②-③-|
③口口④ |--④-|
口口口∧ |----|
78
口口②口 |①---|
①口口1 |②---|
∧口口1 |③-④-|
①<口口 |⑤-⑥-|

口口口⑥
3口⑤|
口④③|
3口口∧
79
①口口4 |①---|
口②口口 |②---|
③口口口 |③---|
口④口口 |④---|
80
∨①①∨ |①---|
①∧∧① |②---|
口口口口 |③---|
口口口口 |④-⑤-|

口22口
2口口2
口口口口
③<>③

口口口口
口⑤⑤口
口⑤⑤口
4口口4
81
①口口① |----|
口口口口 |--①-|
②口口② |--②-|
口口口口 |----|
82
口口∨口 |----|
①①口 |----|
口①①< |①---|
口∧口口 |----|
83
口口口口 |----|
口口口口 |----|
口口口口 |----|
口口口口 |----|
84
口口口口 |----|
口11口 |----|
口11口 |----|
口口口口 |--①-|
85
口口口口 |----|
口口口口 |----|
口口口口 |----|
口口口口 |----|
最終更新:2023年01月17日 12:21