アットウィキロゴ
狂髪天を撫でて綴れ雲の綻び 五体北風に散りて痕も無し
BEMANI Sound Team "Akhuta Works"

BASIC

Level: 4
BPM: 200
Notes: 238

1
口口口口 |----|
口口口口 |----|
口口口口 |----|
口口口口 |----|
2
口口口口 |①---|
口口口口 |----|
口口口口 |----|
口口①口 |----|
3
口口口口 |①---|
口②②口 |----|
口口口口 |----|
口口①口 |②---|
4
口口口口 |①---|
口口口口 |----|
口口口口 |----|
口口①口 |----|
5
口口口口 |①---|
④①①④ |②---|
口②②口 |③---|
口③③口 |④---|
6
口口口口 |①---|
口口口口 |----|
①②口口 |②---|
口口口口 |----|
7
口口口口 |①---|
口口口口 |----|
口口①② |②---|
口口口口 |----|
8
口口口口 |①---|
口口口口 |----|
口口口口 |②---|
口口②① |----|
9
口口口口 |①---|
口口口口 |----|
口①①口 |②---|
口②②口 |----|
10
口口口口 |①---|
①口口① |----|
口②口口 |②---|
口口口口 |----|
11
口口口口 |①---|
口口口口 |----|
口口①口 |②---|
口②口口 |----|
12
口口口口 |①---|
口口口口 |----|
口口口② |②---|
口口①口 |----|
13
口口口② |①---|
口口口① |----|
口口口口 |②---|
口口口口 |----|
14
口口口口 |①---|
①口口① |----|
口口②口 |②---|
口口口口 |----|
15
口口口口 |①---|
口口口口 |----|
口①口口 |②---|
口口②口 |----|
16
口口口口 |①---|
口口口口 |----|
②口口口 |②---|
口①口口 |----|
17
②口口口 |①---|
①口口口 |----|
口口口口 |②---|
口口口口 |----|
18
口口口口 |----|
口口口口 |----|
口口口口 |----|
口口口口 |----|
19
口口口口 |----|
口口口口 |----|
口口口口 |----|
口口口口 |----|
20
口口口口 |①---|
①②口口 |----|
口口口口 |②---|
口口口口 |----|
21
口口口口 |①---|
口口①② |----|
口口口口 |②---|
口口口口 |----|
22
口口口口 |①---|
口口口口 |----|
口口②① |②---|
口口口口 |----|
23
口口口口 |①---|
口口口口 |----|
②①口口 |②---|
口口口口 |----|
24
口口口口 |①---|
口口口口 |----|
口口口口 |②---|
①②口口 |----|
25
口口口口 |①---|
口口口口 |----|
口口口口 |②---|
口口①② |----|
26
口口口口 |①---|
口口口口 |----|
口口②① |②---|
口口口口 |----|
27
口口口口 |①---|
口口口口 |----|
②①口口 |②---|
口口口口 |----|
28
口口口口 |①---|
①②口口 |----|
口口口口 |②---|
口口口口 |----|
29
口口口口 |①---|
口口①② |----|
口口口口 |②---|
口口口口 |----|
30
口口口口 |①---|
口口口口 |----|
口口②① |②---|
口口口口 |----|
31
口口口口 |①---|
口口口口 |----|
②①口口 |②---|
口口口口 |----|
32
口口口口 |①---|
口口口口 |----|
口口口口 |②---|
①②口口 |----|
33
口口口口 |①---|
口口口口 |----|
口口口口 |②---|
口口①② |----|
34
口口口口 |①---|
口口口口 |----|
口口②① |②---|
口口口口 |----|
35
口口口口 |①---|
口口口口 |----|
②①口口 |②---|
口口口口 |----|
36
口口口口 |①---|
口①①口 |----|
口②②口 |②---|
口口口口 |----|
37
口口口口 |----|
口口口口 |----|
口口口口 |----|
口口口口 |----|
38
口口口口 |①---|
①口口① |----|
②口口② |②---|
口口口口 |----|
39
口口口口 |----|
口口口口 |----|
口口口口 |----|
口口口口 |----|
40
口口口口 |①---|
口①①口 |----|
口②②口 |②---|
口口口口 |----|
41
口口口口 |----|
口口口口 |----|
口口口口 |----|
口口口口 |----|
42
口口口口 |①---|
①口口① |----|
②口口② |②---|
口口口口 |----|
43
口口口口 |----|
口口口口 |----|
口口口口 |----|
口口口口 |----|
44
口口口口 |①---|
口口②① |----|
口口口口 |②---|
口口口口 |----|
45
口口口口 |①---|
②①口口 |----|
口口口口 |②---|
口口口口 |----|
46
口口口口 |①---|
口口口口 |----|
①②口口 |②---|
口口口口 |----|
47
口口口口 |①---|
口口口口 |----|
口口①② |②---|
口口口口 |----|
48
口口口口 |①---|
口口口口 |----|
口口口口 |②---|
口口②① |----|
49
口口口口 |①---|
口口口口 |----|
口口口口 |②---|
②①口口 |----|
50
口口口口 |①---|
口口口口 |----|
①②口口 |②---|
口口口口 |----|
51
口口口口 |①---|
口口口口 |----|
口口①② |②---|
口口口口 |----|
52
口口口口 |①---|
①口口① |----|
口口口口 |----|
口口口口 |----|
53
口口口口 |①---|
口口口口 |----|
口①①口 |----|
口口口口 |----|
54
口口口口 |①---|
口口口口 |----|
口口口口 |----|
口①①口 |----|
55
口口口口 |----|
口口口口 |----|
口口口口 |----|
口口口口 |----|
56
口口口口 |①---|
①口口① |----|
口口口口 |----|
口口口口 |----|
57
口口口口 |①---|
口口口口 |----|
口①①口 |----|
口口口口 |----|
58
口口口口 |①---|
口口口口 |----|
口口口口 |----|
口①①口 |----|
59
口口④口 |①---|
口③口口 |②---|
口口②口 |③---|
口①口口 |④---|
60
①①口口 |①---|
口口口口 |----|
口口口口 |----|
口口口口 |----|
61
口口口口 |①---|
口口①① |----|
口口口口 |----|
口口口口 |----|
62
①口口① |①---|
口口口口 |----|
②口口② |②---|
口口口口 |----|
63
口口口口 |①---|
④①①口 |②---|
口②②口 |③---|
口③③口 |④---|
64
①②③④ |①---|
口口口口 |②---|
口口口口 |③---|
口口口口 |④---|
65
口口口口 |①---|
口③②① |②---|
口口口④ |③---|
口口口口 |④---|
66
口口口口 |①---|
④③②① |②---|
口口口口 |③---|
口口口口 |④---|
67
口口口口 |①---|
口口口口 |②---|
①②③口 |③---|
口口口口 |----|
68
口口口口 |①---|
①②③④ |②---|
口口口口 |③---|
口口口口 |④---|
69
口口口口 |①---|
口口口口 |②---|
口③②① |③---|
口口口④ |④---|
70
口口口口 |①---|
口口口口 |②---|
④③②① |③---|
口口口口 |④---|
71
口口口口 |①---|
口口口口 |②---|
口口口口 |③---|
①②③口 |----|
72
①②③④ |①---|
口口口口 |②---|
口口口口 |③---|
口口口口 |④---|
73
口口口口 |①---|
口③②① |②---|
口口口④ |③---|
口口口口 |④---|
74
口口口口 |①---|
④③②① |②---|
口口口口 |③---|
口口口口 |④---|
75
口口口口 |①---|
口口口口 |②---|
①②③口 |③---|
口口口口 |----|
76
口口口口 |①---|
①②③④ |②---|
口口口口 |③---|
口口口口 |④---|
77
口口口口 |①---|
口口口口 |②---|
口③②① |③---|
口口口④ |④---|
78
口口口口 |①---|
口口口口 |②---|
④③②① |③---|
口口口口 |④---|
79
口口口口 |①---|
口口口口 |②---|
口口口口 |③---|
①②③口 |----|
80
口口口口 |①---|
①口口① |----|
②口口② |②---|
口口口口 |----|
81
口口口口 |①---|
口①①口 |②---|
口②②口 |③---|
口③③口 |----|
82
口口口口 |①---|
①口口① |----|
口②口口 |②---|
口口口口 |----|
83
口口口口 |①---|
口口口口 |----|
口口①口 |②---|
口②口口 |----|
84
口口口口 |①---|
口口口口 |----|
口口口② |②---|
口口①口 |----|
85
口口口② |①---|
口口口① |----|
口口口口 |②---|
口口口口 |----|
86
口口口口 |①---|
①口口① |----|
口口②口 |②---|
口口口口 |----|
87
口口口口 |①---|
口口口口 |----|
口①口口 |②---|
口口②口 |----|
88
口口口口 |①---|
口口口口 |----|
②口口口 |②---|
口①口口 |----|
89
②口口口 |①---|
①口口口 |----|
口口口口 |②---|
口口口口 |----|
90
口口口口 |①---|
口①口口 |----|
口口②口 |②---|
口口口口 |----|
91
口口口口 |①---|
口口①口 |----|
口②口口 |②---|
口口口口 |----|
92
口口口口 |①---|
①口口① |----|
②口口② |②---|
口口口口 |----|
93
口口口口 |①---|
口①①口 |②---|
口②②口 |③---|
口③③口 |----|

accuracy: 100%
最終更新:2022年04月21日 15:07