アットウィキロゴ
狂髪天を撫でて綴れ雲の綻び 五体北風に散りて痕も無し
BEMANI Sound Team "Akhuta Works"

ADVANCED

Level: 8
BPM: 200
Notes: 718

1
口口口口 |------|
口口口口 |------|
口口口口 |------|
口口口口 |------|
2
口口口口 |①-----|
口口口口 |------|
口口口口 |②-----|
①口②口 |------|
3
口③口③ |①-----|
口口口口 |------|
口口口口 |②-----|
①口②口 |③-----|
4
口口口口 |①-----|
口口口口 |------|
口口口口 |②-----|
①口②口 |------|
5
①④口④ |①-----|
口口①② |②-----|
③②口口 |③-----|
口口③口 |④-----|
6
⑦口口口 |①---②-|
③④⑤⑥ |③-④-⑤-|
口口口② |⑥---⑦-|
口①口口 |------|
7
口⑦②⑦ |①-----|
口③口口 |②-③-④-|
口⑥④口 |⑤---⑥-|
⑤①①口 |⑦-----|
8
⑦口口⑧ |①---②-|
③④⑤⑥ |③-④-⑤-|
口口口② |⑥---⑦-|
口①口口 |⑧-----|
9
口口口口 |①---②-|
③④⑤⑥ |③-④-⑤-|
口口②口 |⑥-----|
口①口口 |------|
10
①口口① |①-----|
口口口口 |----②-|
口口②口
口口口口

口口口⑦
口⑥⑤④
口口口口 |③-④-⑤-|
口③口口 |⑥---⑦-|
11
①⑤④口 |①---②-|
⑨⑧⑦⑥ |③-④-⑤-|
③口口② |⑥-⑦-⑧-|
⑩口口口 |⑨---⑩-|
12
⑩⑪⑫口 |①-②-③-|
口⑨⑧⑦ |④-⑤-⑥-|
④⑤⑥口 |⑦-⑧-⑨-|
口③②① |⑩-⑪-⑫-|
13
口口口① |①-----|
③⑧口⑤ |②---③-|
口口⑦② |④---⑤-|
口⑥口④ |⑥-⑦-⑧-|
14
①口口① |①-----|
②口口口 |----②-|
口口口口
口口口口

口口口⑦
口口口口
口③口口 |③-④-⑤-|
口⑥⑤④ |⑥---⑦-|
15
①⑤④口 |①---②-|
⑨⑧⑦⑥ |③-④-⑤-|
③口口② |⑥-⑦-⑧-|
⑩口口口 |⑨---⑩-|
16
⑩⑪⑫口 |①-②-③-|
口⑨⑧⑦ |④-⑤-⑥-|
④⑤⑥口 |⑦-⑧-⑨-|
口③②① |⑩-⑪-⑫-|
17
口口口① |①---②-|
⑥口口⑥ |③---④-|
口④⑤口 |⑤-----|
口②③口 |⑥-----|
18
口口口口 |------|
口口口口 |------|
口口口口 |------|
口口口口 |------|
19
口口口口 |------|
口口口口 |------|
口口口口 |------|
口口口口 |------|
20
口口③⑦ |①-----|
口④口口 |②-----|
①②⑤口 |③-④-⑤-|
口⑥口口 |⑥---⑦-|
21
口口口口 |----①-|
①⑥口② |②---③-|
③口⑤④ |④-----|
口口口口 |⑤---⑥-|
22
③⑦口口 |①-----|
口口①④ |②-----|
⑤口口口 |③-④-⑤-|
口口②⑥ |⑥---⑦-|
23
④口①⑤ |①---②-|
口②③口 |③---④-|
口口口口 |⑤-----|
口口口口 |------|
24
口口③⑦ |①-----|
口④口口 |②-----|
①②⑤口 |③-④-⑤-|
口⑥口口 |⑥---⑦-|
25
口口口口 |----①-|
①⑥口② |②---③-|
③口⑤④ |④-----|
口口口口 |⑤---⑥-|
26
③⑦口口 |①-----|
口口①④ |②-----|
⑤口口口 |③-④-⑤-|
口口②⑥ |⑥---⑦-|
27
④口①⑤ |①---②-|
口②③口 |③---④-|
口口口口 |⑤-----|
口口口口 |------|
28
口口⑧④ |①-----|
⑤口口口 |②---③-|
①口③⑥ |④-⑤-⑥-|
⑦②口口 |⑦---⑧-|
29
⑥①口口 |①---②-|
口口口⑦ |③---④-|
口⑤④口 |⑤-----|
口③②口 |⑥---⑦-|
30
口口口口 |①-----|
①口口口 |②-----|
口口口口
口口口②

口③口口
⑦口④口
口⑤口口 |③-④-⑤-|
口口⑥口 |⑥---⑦-|
31
④口口⑤ |①---②-|
口口口① |③---④-|
②口口③ |⑤-----|
口口口口 |------|
32
⑦⑥⑤④ |①-----|
①口⑨⑧ |②---③-|
口口口口 |④-⑤-⑥-|
口②③口 |⑦-⑧-⑨-|
33
⑧口口口 |①-②-③-|
②①⑨口 |④-⑤-⑥-|
⑥⑤④③ |⑦-----|
口口口⑦ |⑧---⑨-|
34
口⑦口③ |①-----|
④①口口 |②-----|
口口口⑤ |③-④-⑤-|
⑥口②口 |⑥---⑦-|
35
④口①⑤ |①---②-|
⑥②③⑥ |③---④-|
口口⑦口 |⑤-----|
口口口口 |⑥---⑦-|
36
⑤①①⑤ |①---②-|
口②②口 |--③-④-|
⑥⑦⑧口 |⑤-----|
口③④口 |⑥-⑦-⑧-|
37
⑥⑦⑧⑨ |①---②-|
口⑤④③ |③-④-⑤-|
口口口① |⑥-⑦-⑧-|
②口口口 |⑨-----|
38
⑥口⑦口 |①---②-|
⑤口口⑤ |--③-④-|
①③④① |⑤-----|
②口口② |⑥---⑦-|
39
⑩口口口 |①-②-③-|
口⑦⑧⑨ |④-⑤-⑥-|
④⑤⑥口 |⑦-⑧-⑨-|
口①②③ |⑩-----|
40
口⑧①① |①---②-|
口⑤⑤口 |--③-④-|
口⑥⑦口 |⑤-----|
③②②④ |⑥-⑦-⑧-|
41
口口①口 |①---②-|
②口口③ |③---④-|
⑧口口口 |⑤-⑥-⑦-|
④⑤⑥⑦ |⑧-----|
42
⑤①①⑤ |①---②-|
口②②口 |--③-④-|
口口口④ |⑤-----|
③⑧⑦⑥ |⑥-⑦-⑧-|
43
⑦⑧⑨口 |①-②-③-|
口⑥⑤④ |④-⑤-⑥-|
①②③口 |⑦-⑧-⑨-|
⑩⑪⑫口 |⑩-⑪-⑫-|
44
口口⑦③ |①-----|
④口口口 |②-----|
①②⑤口 |③-④-⑤-|
口⑥口口 |⑥---⑦-|
45
口①口口 |①---②-|
口⑦口口 |③---④-|
口②⑥④ |⑤-----|
⑤口③口 |⑥---⑦-|
46
③⑦口口 |①-----|
口口①④ |②-----|
口⑤口口 |③-④-⑤-|
口口⑥② |⑥---⑦-|
47
④口①⑤ |①---②-|
口②③口 |③---④-|
口口口口 |⑤-----|
口口口口 |------|
48
口口⑤口 |①---②-|
①⑥口口 |③---④-|
口②③⑦ |⑤-⑥-⑦-|
⑧④口⑨ |⑧---⑨-|
49
口①口口 |①-②-③-|
⑤⑧②⑥ |④---⑤-|
口③⑦口 |⑥-----|
口口④口 |⑦---⑧-|
50
口口口⑥ |①-----|
④口①口 |②---③-|
口⑦⑤口 |④---⑤-|
口③②口 |⑥---⑦-|
51
口口①口 |①---②-|
④③口⑤ |③---④-|
口口口口 |⑤-----|
口口②口 |------|
52
口②口② |①-----|
③口③口 |②-----|
口④口④ |③-----|
①口口① |④-----|
53
②口②口 |①-----|
口③口③ |②-----|
④口④口 |③-----|
①口①口 |④-----|
54
②口口② |①-----|
口口口口 |------|
口口口口 |②-----|
口①口① |------|
55
口②③④ |①-----|
⑦⑥⑤口 |②-③-④-|
口⑧⑨⑩ |⑤-⑥-⑦-|
口①①口 |⑧-⑨-⑩-|
56
②口②口 |①-----|
口③口③ |②-----|
④口④口 |③-----|
口①①口 |④-----|
57
口②口② |①-----|
③口③口 |②-----|
口④口④ |③-----|
口①口① |④-----|
58
②口口② |①-----|
口口口口 |------|
口口口口 |②-----|
①口①口 |------|
59
口②④口 |①-----|
②口口④ |②-----|
①口口③ |③-----|
口①③口 |④-----|
60
口口⑧口 |------|
⑦口口口 |①-②-③-|
口⑥⑤④ |④-⑤-⑥-|
①②③口 |⑦---⑧-|
61
口①口口 |①---②-|
口③②口 |③---④-|
口⑧⑦⑥ |⑤-----|
口⑤④口 |⑥-⑦-⑧-|
62
⑤⑥⑥④ |①---②-|
口③②口 |③---④-|
①口口口 |⑤-----|
口口口口 |⑥-----|
63
口口口口 |①-----|
①口口① |②-----|
②④④② |③-----|
③口口③ |④-----|
64
①口口① |①---②-|
⑥⑤④③ |③-④-⑤-|
⑧⑨⑩口 |⑥---⑦-|
口⑦②口 |⑧-⑨-⑩-|
65
口③②口 |①---②-|
口⑤④⑦ |③---④-|
口口口① |⑤-----|
⑥口口口 |⑥---⑦-|
66
③④⑤② |①---②-|
口口口口 |③-④-⑤-|
口口①口
口口口口

口口口口
⑥⑦⑧口
⑨⑩⑪口 |⑥-⑦-⑧-|
口口口口 |⑨-⑩-⑪-|
67
③口口② |①---②-|
⑤口口④ |③---④-|
口口口口 |⑤-----|
①口⑥口 |----⑥-|
68
⑥⑤④③ |①---②-|
口⑧⑦口 |③-④-⑤-|
口②⑨口 |⑥---⑦-|
口①口口 |⑧---⑨-|
69
口口口口 |①---②-|
③口⑧② |③---④-|
⑤⑦口④ |⑤-----|
口①⑥口 |⑥-⑦-⑧-|
70
口①⑨② |①-----|
③⑤口⑧ |②-③-④-|
口口⑥④ |⑤-⑥-⑦-|
口⑦口口 |⑧---⑨-|
71
①口口口 |①---②-|
口口②口 |③---④-|
⑥③口口 |⑤-----|
⑤⑥④口 |⑥-----|
72
①口口① |①---②-|
⑥⑤④③ |③-④-⑤-|
口口⑨口 |⑥---⑦-|
口⑧⑦② |⑧---⑨-|
73
口③②口 |①---②-|
口⑤④⑦ |③---④-|
口①口口 |⑤-----|
⑥口口口 |⑥---⑦-|
74
③④⑤⑥ |①---②-|
口⑦⑧口 |③-④-⑤-|
口⑨①口 |⑥---⑦-|
口口②口 |⑧---⑨-|
75
口口口口 |①---②-|
口口口口 |③---④-|
②口①③ |⑤-----|
④口⑥⑤ |----⑥-|
76
⑥⑤④③ |①---②-|
口⑧⑦口 |③-④-⑤-|
口②⑨口 |⑥---⑦-|
口①口口 |⑧---⑨-|
77
口口口口 |①---②-|
③口⑧② |③---④-|
⑤⑦口④ |⑤-----|
口①⑥口 |⑥-⑦-⑧-|
78
口①⑨② |①-----|
③⑤口⑧ |②-③-④-|
口口⑥④ |⑤-⑥-⑦-|
口⑦口口 |⑧---⑨-|
79
①⑥口⑥ |①---②-|
口⑦②⑦ |③---④-|
③口口口 |⑤---⑥-|
⑤口④口 |--⑦---|
80
②口③口 |①---②-|
④口⑤口 |③-④-⑤-|
口①口①
口口口口

口⑧口⑦
口口口口
⑥口口⑨ |⑥---⑦-|
口口口口 |⑧---⑨-|
81
③口②口 |①---②-|
口⑥⑥口 |③---④-|
⑤①④口 |⑤-----|
口⑥⑥口 |⑥-----|
82
口口口⑦ |①-----|
口⑥⑤④ |----②-|
口③②口 |③-④-⑤-|
①口口① |⑥---⑦-|
83
①⑤④口 |①---②-|
⑨⑧⑦⑥ |③-④-⑤-|
③口口② |⑥-⑦-⑧-|
⑩口口口 |⑨---⑩-|
84
⑩⑪⑫口 |①-②-③-|
口⑨⑧⑦ |④-⑤-⑥-|
④⑤⑥口 |⑦-⑧-⑨-|
口③②① |⑩-⑪-⑫-|
85
口口口① |①-----|
③⑧口⑤ |②---③-|
口口⑦② |④---⑤-|
口⑥口④ |⑥-⑦-⑧-|
86
①口口① |①-----|
②口口口 |----②-|
口口口口
口口口口

口口口⑦
口口口口
口③口口 |③-④-⑤-|
口⑥⑤④ |⑥---⑦-|
87
①⑤④口 |①---②-|
⑨⑧⑦⑥ |③-④-⑤-|
③口口② |⑥-⑦-⑧-|
⑩口口口 |⑨---⑩-|
88
⑩⑪⑫口 |①-②-③-|
口⑨⑧⑦ |④-⑤-⑥-|
④⑤⑥口 |⑦-⑧-⑨-|
口③②① |⑩-⑪-⑫-|
89
口口口① |①---②-|
⑥口口⑥ |③---④-|
口④⑤口 |⑤-----|
口②③口 |⑥-----|
90
⑥⑤④③ |①---②-|
口②口口 |③-④-⑤-|
口口⑦口 |⑥---⑦-|
口口口① |------|
91
⑨口口⑧ |①-②-③-|
④⑦①口 |④-⑤-⑥-|
口②口⑤ |⑦---⑧-|
⑥口③口 |⑨-----|
92
口口⑦口 |①---②-|
⑥⑤④③ |③-④-⑤-|
口②口口 |⑥---⑦-|
口口口① |------|
93
②口口① |①-----|
口③③口 |②-----|
口③③口 |③-----|
①口口② |------|

accuracy: 100%
最終更新:2022年04月21日 15:34