アットウィキロゴ
狂髪天を撫でて綴れ雲の綻び 五体北風に散りて痕も無し
BEMANI Sound Team "Akhuta Works"

EXTREME

Level: 9.8
BPM: 200
Notes: 811

1
口口口口 |------|
口口口口 |------|
口口口口 |------|
口口口口 |------|
2
口口口口 |①-----|
口口口② |------|
口口口口 |②---③-|
①口③口 |------|
3
③口③口 |①-----|
口③口口 |------|
口口口② |②-----|
①口口口 |③-----|
4
口口口口 |①-----|
④口口② |------|
⑤口口口 |②---③-|
①口③口 |----④⑤|
5
②④②④ |①-----|
口②④口 |②-----|
口口③口 |③-----|
①③口③ |④-----|
6
②⑦④⑦ |①---②-|
口③口⑤ |③-④-⑤-|
口口口口 |⑥---⑦-|
①口口⑥ |------|
7
⑦⑫⑨⑫ |①②③④⑤⑥|
口⑧⑫⑩ |⑦-⑧-⑨-|
①②③口 |⑩---⑪-|
④⑤⑥⑪ |⑫-----|
8
②⑦④口 |①---②-|
口③⑧⑤ |③-④-⑤-|
口口口口 |⑥---⑦-|
①⑥口口 |⑧-----|
9
口口口⑥ |①---②-|
①口口⑤ |③-④-⑤-|
口②口④ |⑥-----|
口口口③ |------|
10
口②③口 |①-----|
口④口口 |----②③|
口⑧口⑤ |④-⑤-⑥-|
⑥①①⑦ |⑦---⑧-|
11
⑨口⑩② |①---②-|
口⑤⑧口 |③-④-⑤-|
④口①⑦ |⑥-⑦-⑧-|
口③⑥口 |⑨---⑩-|
12
口口口口 |①-②-③-|
③⑨⑫⑥ |④-⑤-⑥-|
⑧②⑤⑪ |⑦-⑧-⑨-|
①⑦⑩④ |⑩-⑪-⑫-|
13
①③②口 |①---②-|
⑨口口⑥ |③---④-|
⑧⑤④口 |⑤---⑥-|
⑦口口口 |⑦-⑧-⑨-|
14
口②③口 |①-----|
口④口口 |----②③|
口⑧口⑤ |④-⑤-⑥-|
⑥①①⑦ |⑦---⑧-|
15
⑨口⑩② |①---②-|
口⑤⑧口 |③-④-⑤-|
④口①⑦ |⑥-⑦-⑧-|
口③⑥口 |⑨---⑩-|
16
口口口口 |①-②-③-|
③⑨⑫⑥ |④-⑤-⑥-|
⑧②⑤⑪ |⑦-⑧-⑨-|
①⑦⑩④ |⑩-⑪-⑫-|
17
①④③② |①---②-|
口口口⑧ |③---④-|
口⑤口⑦ |⑤---⑥⑦|
口口口⑥ |⑧-----|
18
口④口⑥ |①---②-|
③口⑤口 |③-④-⑤-|
⑧口⑩口 |⑥---⑦-|
①⑨②⑦ |⑧-⑨-⑩-|
19
口⑤②口 |①-②-③-|
④①⑥③ |④-⑤-⑥-|
口口口⑦ |⑦-----|
口口口口 |------|
20
③④口① |①-----|
口①⑤⑥ |②-----|
②口口口 |③-④-⑤-|
口⑦②口 |⑥---⑦-|
21
口口口③ |①---②-|
①⑥口口 |③---④-|
口④②⑦ |⑤-----|
口口⑤口 |⑥---⑦-|
22
②口①口 |①-----|
口口口口 |②-----|
③④口口 |③-④-⑤-|
口⑦⑤⑥ |⑥---⑦-|
23
口口口③ |①---②-|
①口④口 |③---④-|
口⑤②口 |⑤-----|
口口口口 |------|
24
③④①口 |①-----|
口①⑤⑥ |②-----|
口口口② |③-④-⑤-|
口⑦②口 |⑥---⑦-|
25
口口口③ |①---②-|
①⑥口口 |③---④-|
口④②⑦ |⑤-----|
口口⑤口 |⑥---⑦-|
26
②口①口 |①-----|
口口口口 |②-----|
③④口口 |③-④-⑤-|
口⑦⑤⑥ |⑥---⑦-|
27
口⑤口③ |①---②-|
①口④口 |③---④-|
口口②口 |⑤-----|
口口口口 |------|
28
⑦⑥口口 |①-----|
②口⑤④ |②---③-|
③口口① |④-⑤-⑥-|
⑧口①口 |⑦---⑧-|
29
口口③口 |①---②-|
口①口口 |③---④-|
⑦④⑥② |⑤-----|
口口⑤口 |⑥---⑦-|
30
口①口口 |①-----|
口②口口 |②-----|
口⑦⑤⑥ |③-④-⑤-|
③④口口 |⑥---⑦-|
31
①口④口 |①---②-|
口⑤口③ |③---④-|
口口口口 |⑤-----|
口口②口 |------|
32
③④⑤⑥ |①-----|
⑨⑧⑦② |②---③-|
①口口口 |④-⑤-⑥-|
口①口口 |⑦-⑧-⑨-|
33
⑨⑦⑦⑧ |①-②-③-|
口口口口 |④-⑤-⑥-|
口①②③ |⑦-----|
⑥⑤④口 |⑧---⑨-|
34
口口口口 |①-----|
②口口口 |②-----|
口①口口
口口口口

口口口口
口口口口
口⑦⑤⑥ |③-④-⑤-|
③④口口 |⑥---⑦-|
35
①口④口 |①---②-|
⑥⑤⑦③ |③---④-|
口口口口 |⑤-----|
口口②口 |⑥---⑦-|
36
⑤口口② |①---②-|
口⑤⑧口 |--③-④-|
①⑦③口 |⑤-----|
⑥①④口 |⑥-⑦-⑧-|
37
口④③② |①---②③|
口⑨口⑧ |④-⑤-⑥-|
⑦口⑤⑩ |⑦-⑧-⑨-|
口⑥口① |⑩-----|
38
⑥⑤⑤② |①---②-|
①口口⑤ |--③-④-|
口③口口 |⑤-----|
④⑦①口 |⑥---⑦-|
39
口口口⑤ |①-②-③-|
③②①⑥ |④---⑤⑥|
⑧④⑨⑦ |⑦-⑧-⑨-|
⑩口口口 |⑩-----|
40
口⑤⑤⑤ |①---②-|
⑧②①③ |--③-④-|
⑦口口④ |⑤-----|
⑥口②① |⑥-⑦-⑧-|
41
①⑧⑨口 |①---②③|
口⑩②⑤ |④---⑤⑥|
口口③⑥ |⑦-⑧-⑨-|
口口④⑦ |⑩-----|
42
⑤⑤口⑥ |①---②-|
⑤⑦⑤口 |--③-④-|
①②⑧③ |⑤-----|
②①口④ |⑥-⑦-⑧-|
43
⑥口⑦口 |①-②-③-|
⑧口⑩⑤ |④-⑤-⑥-|
③④⑫口 |⑦-⑧-⑨-|
⑪①②⑨ |⑩-⑪-⑫-|
44
③④口① |①-----|
口①⑤⑥ |②-----|
②口口口 |③-④-⑤-|
口⑦②口 |⑥---⑦-|
45
口口口③ |①---②-|
①⑥口口 |③---④-|
口④②⑦ |⑤-----|
口口⑤口 |⑥---⑦-|
46
②口①口 |①-----|
口口口⑤ |②-----|
③口口口 |③---④-|
口⑥④口 |⑤---⑥-|
47
⑥⑦口③ |①---②-|
①口④⑧ |③---④-|
⑨⑤②口 |⑤-⑥-⑦-|
口口口⑩ |⑧-⑨-⑩-|
48
⑤⑥①口 |①---②-|
①口⑦⑧ |③---④-|
口④口② |⑤-⑥-⑦-|
口口③⑨ |⑧---⑨-|
49
口口口⑧ |①-②-③-|
口⑦口口 |④---⑤-|
口⑤③④ |⑥-----|
①②⑥口 |⑦---⑧-|
50
②口⑦口 |①-----|
口⑥①④ |②---③-|
口口口口 |④---⑤-|
⑤口③口 |⑥---⑦-|
51
⑧④口口 |①---②-|
②口⑤⑨ |③---④-|
⑩①口口 |⑤-⑥-⑦-|
口③⑦⑥ |⑧-⑨-⑩-|
52
口口口④ |①-----|
②口④口 |②-----|
口②③① |③-----|
口口口③ |④-----|
53
口口①口 |①-----|
④①口③ |②-----|
④②口③ |③-----|
口口②口 |④-----|
54
②口口① |①-----|
口口口口 |------|
口口口口 |②-----|
①口口② |------|
55
⑤④③口 |①---②-|
口⑧⑦⑥ |③-④-⑤-|
⑪⑩⑨口 |⑥-⑦-⑧-|
①口②口 |⑨-⑩-⑪-|
56
口②④④ |①-----|
②口口④ |②-----|
口口口③ |③-----|
口口③① |④-----|
57
②口④口 |①-----|
口②口④ |②-----|
①口③口 |③-----|
①①口③ |④-----|
58
②口口① |①-----|
口②①口 |------|
口①②口 |②-----|
①口口② |------|
59
口④②口 |①-----|
④④④② |②-----|
③④④④ |③-----|
①③④口 |④-----|
60
口口②① |------|
口口⑧③ |①-②-③-|
⑥口口口 |④-⑤-⑥-|
④⑤口⑦ |⑦---⑧-|
61
口④口口 |①---②-|
⑤口口⑧ |③---④-|
口①⑦② |⑤-----|
口口③⑥ |⑥-⑦-⑧-|
62
②口①口 |①---②-|
口④⑥口 |③---④-|
口③口口 |⑤-----|
口口⑤口 |⑥-----|
63
②②①① |①-----|
③口口③ |②-----|
②②①① |③-----|
③④口③ |④-----|
64
②口③⑦ |①---②-|
⑧④⑨口 |③-④-⑤-|
⑩口口① |⑥---⑦-|
⑥口口⑤ |⑧-⑨-⑩-|
65
⑥口③口 |①---②-|
口⑤口⑦ |③---④-|
口口①② |⑤-----|
④口口口 |⑥---⑦-|
66
口②③口 |①---②-|
口口⑤口 |③-④-⑤-|
口④①口
口口口口

口口口⑨
⑩⑧口口
口口⑪⑦ |⑥-⑦-⑧-|
口⑥口口 |⑨-⑩-⑪-|
67
口③②口 |①---②-|
口口④口 |③---④-|
①⑤口口 |⑤-----|
口口⑥口 |----⑥-|
68
⑧②口⑥ |①---②-|
③口口① |③-④-⑤-|
口⑦④口 |⑥---⑦-|
⑤口⑨口 |⑧---⑨-|
69
口②口口 |①---②-|
③口口① |③---④-|
口口④口
口口口口

口口口口
口口口⑧
口口口⑦ |⑤-----|
口⑤口⑥ |⑥-⑦-⑧-|
70
④③②① |①-----|
口⑥⑤口 |②-③-④-|
口⑧⑦口 |⑤-⑥-⑦-|
口⑨口口 |⑧---⑨-|
71
口④③口 |①---②-|
①口⑤⑥ |③---④-|
⑥口⑥② |⑤-----|
⑥口口口 |⑥-----|
72
②口③⑦ |①---②-|
⑧④口口 |③-④-⑤-|
⑨⑤口口 |⑥---⑦-|
口口⑥① |⑧---⑨-|
73
口口③口 |①---②-|
口口口口 |③---④-|
口口①②
④口口口

⑥口口⑥
口⑤口口
口口⑦口 |⑤-----|
口口口口 |⑥---⑦-|
74
口④口⑧ |①---②-|
口口⑤① |③-④-⑤-|
②口口⑥ |⑥---⑦-|
⑨⑦③口 |⑧---⑨-|
75
③口口口 |①---②-|
⑤⑤口① |③---④-|
口②口口 |⑤-----|
口口⑥④ |----⑥-|
76
⑧②①⑥ |①---②-|
口口⑥① |③-④-⑤-|
④⑦口③ |⑥---⑦-|
口⑤⑨口 |⑧---⑨-|
77
口口②口 |①---②-|
③口口① |③---④-|
④口口口
口口口口

口口口口
口口口⑧
口口口⑦ |⑤-----|
口⑤口⑥ |⑥-⑦-⑧-|
78
④③②① |①-----|
口⑥⑤口 |②-③-④-|
口⑧⑦口 |⑤-⑥-⑦-|
口⑨口口 |⑧---⑨-|
79
④口⑤口 |①---②-|
①⑦口⑦ |③---④-|
③⑥⑦② |⑤---⑥-|
⑥口⑥口 |--⑦---|
80
⑤①⑥⑨ |①---②-|
①口①口 |③-④-⑤-|
⑦口⑧④ |⑥---⑦-|
口③口② |⑧---⑨-|
81
口③⑤口 |①---②-|
⑤口⑥③ |③---④-|
⑥①⑥口 |⑤-----|
⑥⑥②④ |⑥-----|
82
①②③① |①-----|
口④口口 |----②③|
口⑧口⑤ |④-⑤-⑥-|
⑥口口⑦ |⑦---⑧-|
83
⑨口⑩② |①---②-|
口⑤⑧口 |③-④-⑤-|
④口①⑦ |⑥-⑦-⑧-|
口③⑥口 |⑨---⑩-|
84
口口口口 |①-②-③-|
③⑨⑫⑥ |④-⑤-⑥-|
⑧②⑤⑪ |⑦-⑧-⑨-|
①⑦⑩④ |⑩-⑪-⑫-|
85
①③②口 |①---②-|
⑨口口⑥ |③---④-|
⑧⑤④口 |⑤---⑥-|
⑦口口口 |⑦-⑧-⑨-|
86
口②③口 |①-----|
口④口口 |----②③|
口⑧口⑤ |④-⑤-⑥-|
⑥①①⑦ |⑦---⑧-|
87
⑨口⑩② |①---②-|
口⑤⑧口 |③-④-⑤-|
④口①⑦ |⑥-⑦-⑧-|
口③⑥口 |⑨---⑩-|
88
口口口口 |①-②-③-|
③⑨⑫⑥ |④-⑤-⑥-|
⑧②⑤⑪ |⑦-⑧-⑨-|
①⑦⑩④ |⑩-⑪-⑫-|
89
①④③② |①---②-|
口口口⑧ |③---④-|
口⑤口⑦ |⑤---⑥⑦|
口口口⑥ |⑧-----|
90
⑤④③⑦ |①---②-|
口口口口 |③-④-⑤-|
口口⑥口 |⑥---⑦-|
①口②口 |------|
91
⑩⑨⑫⑫ |①②③④⑤⑥|
①④⑧⑦ |⑦-⑧-⑨-|
②⑤口口 |⑩---⑪-|
③⑥口⑪ |⑫-----|
92
口口口⑦ |①---②-|
⑤④③口 |③-④-⑤-|
口口⑥口 |⑥---⑦-|
①口②口 |------|
93
口⑦①口 |①-②-③-|
⑦④⑦⑦ |④-⑤-⑥-|
②⑦口⑤ |⑦-----|
口⑥③口 |------|

accuracy: 100%
最終更新:2022年04月21日 16:41