アットウィキロゴ
カラルの月 [ 2 ]
猫叉劇団

EXTREME

Level: 9.3
BPM: 135
Notes(hold): 699(75)

1
口口口口 |----|
口口口口 |----|
口口口口 |----|
口口口口 |----|
2
口口口① |①---|
口口口| |②---|
口口口∧ |③---|
口口②口 |④---|

口④口③
∨口口口
|口口口
③口口口
3
口口②口 |①---|
口口口∨ |②---|
口口口| |③---|
①口口① |④---|

口口口口
口口口口
口口口口
口④口③
4
口②口口 |①-②-|
①∨口口 |③---|
口③口口 |----|
口口④口 |④---|
5
口口②口 |①-②-|
口口∨① |③---|
口①③口 |----|
口口口口 |④⑤⑥-|

口口口口
④⑤⑥口
口口⑤口
口口口口
6
口口口口 |①---|
口口③口 |----|
口②口口 |②---|
口①①口 |③---|
7
②口口② |①---|
③口口③ |②---|
③口口③ |③---|
口口①口 |④---|

口④④口
口口口口
口口口口
口④④口
8
④口⑥口 |①②③---|
⑤①②③ |④-⑤-|
⑥⑤④口 |⑥---|
口口口口 |⑦-⑧-|

口口口口
口⑧口口
口口口口
口口口⑦
9
③④口口 |①-②-|
口口②① |③-④-|
口④③口 |⑤---|
口①②口 |⑥---|

口口口口
∨口口∨
|口口|
⑤口口⑤

口口口口
口口口口
口口口口
⑥口口⑥
10
⑤口口口 |①②③---|
③②①口 |④-⑤-|
口口口④ |⑥⑦⑧---|
⑥⑦⑧口 |⑨-⑩-|

口口口⑩
⑨口口口
口口口口
口口口口
11
口⑤口口 |①-②③|
⑤④③∨ |④-⑤-|
②口口| |⑥-⑦⑧|
⑥口口① |⑨-⑩-|

口口口⑩
口口口口
口⑧⑦口
口口⑨⑦
12
④口⑥口 |①②③---|
⑤①②③ |④-⑤-|
⑥⑤④口 |⑥---|
口口口口 |⑦-⑧-|

口口口口
口⑧口口
口口口口
口口口⑦
13
③④⑤⑥ |①-②-|
口口②① |③④⑤⑥--|
口口口口 |⑦---|
口①②口 |⑧-⑨-|

口口口口
∨口口∨
|口口|
⑦口口⑦

口⑨口口
口口⑧⑧
口⑨口口
⑧口口⑧
14
①口④⑤ |①-②-|
③③⑥口 |③-④-|
①口④⑤ |⑤-⑥-|
口②口口 |⑦-⑧-|

口口口口
⑧口口口
⑦口口口
口⑦⑧口
15
①―<口 |①---|
口口口∨ |②---|
口口口| |③---|
口口口① |④---|

②④④口
③②口③
③口②③
口④④②
16
④口⑥口 |①②③---|
⑤①②③ |④-⑤-|
⑥⑤④口 |⑥---|
口口口口 |⑦-⑧-|

口口口口
口⑧口口
口口口口
口口口⑦
17
③④口口 |①-②-|
口口②① |③-④-|
口④③口 |⑤---|
口①②口 |⑥--⑦⑧⑨|

口口口口
∨口口∨
|口口|
⑤口口⑤

口口口口
口⑨⑧⑦
口口口口
⑥口口⑥
18
③口口口 |①---|
①口口口 |②-③-|
口⑦口② |④⑤⑥⑦--|
④⑤⑥口 |⑧-⑨-|

口口口⑨
⑧口口口
口口口口
口口口口
19
口⑤口口 |①-②③|
⑤④③∨ |④-⑤-|
②口口| |⑥-⑦⑧|
⑥口口① |⑨-⑩-|

口口口⑩
口口口口
口⑧⑦口
口口⑨⑦
20
④口⑥口 |①②③---|
⑤①②③ |④-⑤-|
⑥⑤④口 |⑥---|
口口口口 |⑦-⑧-|

口口口口
口⑧口口
口口口口
口口口⑦
21
③④⑤⑥ |①-②-|
口口②① |③④⑤⑥--|
口口口口 |⑦---|
口①②口 |⑧-⑨-|

口口口口
∨口口∨
|口口|
⑦口口⑦

口⑨口口
口口⑧⑧
口⑨口口
⑧口口⑧
22
①口④⑤ |①-②-|
③③⑥口 |③-④-|
①口④⑤ |⑤-⑥-|
口②口口 |⑦-⑧-|

口口口口
⑧口口口
⑦口口口
口⑦⑧口
23
①―<口 |①---|
口口口∨ |②---|
口口口| |③-④-|
口口口① |⑤---|

②⑤口④
⑤②④口
口④②③
④口③②
24
口口口口 |①---|
口>―① |----|
口口口口 |②---|
口口口口 |----|

口∨口口
口|口②
口②口口
口口口口
25
口口口口 |----|
口口口∨ |①---|
口①口① |②---|
口口口口 |③---|

口口口口
②―<口
口口口②
口口口口

口口>③
③口口口
口口口口
口口口口
26
口口口① |①---|
口口口口 |----|
①―<口 |②---|
口口口口 |----|


口口∨口
口口|口
②口②口
口口口口
27
口口口口 |----|
口①口口 |①---|
口∧①口 |②---|
口口口口 |③---|

口口口口
口②口∨
口口口②
口口口口

口口口口
③口口口
∧口口③
口口口口
28
口口口① |①---|
①口口| |----|
口口口∧ |②---|
口口口口 |----|

口口口②
口口口口
口口口口
口②―<
29
口口口口 |----|
口口口∨ |①---|
口口口① |②---|
口①口口 |③---|

∨口口口
②口口口
口口口②
口口口口

口口口③
③口口∧
口口口口
口口口口
30
口口口① |①---|
口①―< |----|
口口口口 |②---|
口口口口 |----|

口口口口
口②口口
口>―②
口口口口
31
①⑤⑨口 |----|
②⑥⑩口 |①②③④|
③⑦⑪① |⑤⑥⑦⑧|
④⑧⑫口 |⑨⑩⑪⑫|
32
口③口∨ |①-②-|
口口口| |③-④-|
口口口① |⑤-⑥-|
②④口口 |⑦-⑧-|

口口⑥⑧
⑤―<口
口口口⑤
口口口⑦
33
口口③口 |①-②-|
③①①③ |③-④-|
口④②⑤ |⑤-⑥-|
口口⑤口 |⑦-⑧-|

口口口口
口⑥⑧口
⑦口口口
口⑦口口
34
口∨④口 |①-②-|
口|口③ |③-④-|
口①②口 |⑤-⑥-|
口口口口 |⑦-⑧-|

⑧⑥口口
口口口∨
口⑤口|
⑦口口⑤
35
口口口口 |①-②-|
口①①口 |③-④-|
③④②⑤ |⑤-⑥-|
口③⑤③ |⑦-⑧-|

口口⑦口
口⑥⑧⑦
口口口口
口口口口
36
②④口① |①-②-|
口口口| |③-④-|
③①口∧ |⑤-⑥-|
口口口口 |⑦-⑧-|

口口口⑤
∨口口⑥
|口口口
⑤口⑦⑧
37
口口③口 |①-②-|
口①①③ |③-④-|
口④②⑤ |⑤-⑥-|
③口⑤口 |⑦-⑧-|

口口口口
口⑥⑧口
⑦口口口
口⑦口口
38
∨口②口 |①-②-|
①口口④ |③-④-|
口口口口 |⑤-⑥-|
口口③口 |⑦-⑧-|

⑦口口口
⑤口口口
――⑤
口⑥口口

口口口口
口口口口
⑧口口口
口口口口
39
口①①口 |①-②-|
⑤⑦⑥⑧ |③-④-|
口②口口 |⑤⑥⑦⑧|
④③③口 |⑨-⑩⑪|

⑩口口⑩
口口口口
口⑨⑨⑪
口口口口
40
口口口口 |----|
口口口口 |----|
口②①口 |----|
口口口口 |--①②|
41
③口①③ |①---|
口②口① |②---|
②口口口 |③--④⑤⑥|
⑦⑥⑤④ |⑦-⑧-|

口口口口
口口口⑧
口口⑧口
口口口口
42
③④⑤⑥ |①-②-|
口②口口 |③④⑤⑥--|
②①口口 |⑦---|
口口口口 |⑧-⑨⑩|

口口口口
∨口口∨
|口口|
⑦口口⑦

口口口口
⑧⑩⑨⑧
口口口口
⑧口口⑧
43
③②②③ |①---|
口口口口 |②---|
②③③② |③---|
口①①口 |④---|

口口口口
口口口口
口口口口
④④④④
44
口口①口 |①-②③|
口口④① |④-⑤-|
口③②口 |⑥---|
口⑤⑤口 |⑦-⑧⑨|

口⑥<口
⑥口口口
∧口口口
口口口口

口⑦口口
⑦口口口
口⑨⑧口
口口口口
45
⑤口①⑤ |①-②-|
④③②① |③-④-|
③口口口 |⑤--⑥⑦⑧|
⑨⑧⑦⑥ |⑨-⑩-|

口口口口
口⑩口口
⑩口口口
口口口口
46
口③①口 |①-②-|
③口口① |③-④-|
口④②口 |⑤---|
口口口口 |⑥-⑦⑧|

⑤口口⑤
|口口|
∧口口∧
口口口口

⑥口口⑥
口口口口
⑥口口⑥
口⑧⑦口
47
③口口口 |①---|
②①①② |②---|
③②②口 |③-④-|
口④口④ |⑤⑥⑦⑧--|

口口⑤口
口口⑥口
口口⑦口
口口⑧口
48
口①口① |①-②-|
②口口| |③-④-|
口③口| |⑤---|
④口口∧ |⑥-⑦⑧|

⑤口口口
∧口口口
口口口口
口口口口

⑥口口⑥
口口口口
口⑧⑦口
口口口口
49
⑤口①⑤ |①-②-|
④③②① |③-④-|
③口口口 |⑤--⑥⑦⑧|
⑨⑧⑦⑥ |⑨-⑩-|

口口口口
口口口⑩
口口⑩口
口口口口
50
②③④⑤ |①--②③④|
口口①口 |⑤-⑥-|
口口口① |⑦---|
口⑥⑥口 |⑧-⑨⑩|

口口口口
⑦口口⑦
|口口|
∧口口∧

口口口口
⑧⑩⑨⑧
口口口口
⑧口口⑧
51
⑤③③⑤ |①-②-|
口口⑥口 |③-④-|
③②④③ |⑤-⑥-|
口①①口 |⑦-⑧-|

口口口口
口⑧口口
口口口口
⑦⑦⑦⑦
52
口口①口 |①-②③|
口口④① |④-⑤-|
口③②口 |⑥-⑦-|
⑤口口⑤ |⑧-⑨⑩|

⑥<口口
⑥口口
口口口口
口口⑦口

⑧口⑧⑧
口⑧口口
口⑩⑨口
口口口口
53
⑧⑨口⑦ |①②③④|
⑥口⑨⑤ |⑤⑥⑦⑧|
④口口③ |⑨--⑩⑪⑫|
②口口① |⑬-⑭-|

口口口口
口⑭口口
⑭口口口
⑬⑫⑪⑩
54
口③①口 |①-②-|
③口口① |③-④-|
口④②口 |⑤-⑥-|
口口口口 |⑦-⑧⑨|

⑤口口⑤
∧口口∧
⑥口口⑥
口口口口

⑦口口⑦
口⑦⑦口
口口口口
口⑨⑧口
55
⑤①①口 |①-②-|
③口口④ |③-④-|
⑤③②口 |⑤-⑥-|
口⑥口⑥ |⑦⑧⑨⑩--|

口口⑦口
口口⑧口
口口⑨口
口口⑩口
56
口①口① |①-②-|
②口口| |③-④-|
口③口∧ |⑤---|
④口口口 |----|

⑤口口口
∧口口口
口口口口
口口口口
57
①口口① |①-②-|
②④∨口 |③-④-|
①③①口 |⑤-⑥-|
口口口口 |⑦-⑧-|

口口口∨
口口口⑤
⑦⑧⑤口
⑤⑥口口
58
口口口口 |①-②-|
①口②① |③--④⑤⑥|
口口口口 |⑦-⑧-|
③口>① |⑨-⑩-|

口④⑩⑨
口⑤口口
口⑥⑧口
口⑦口④
59
①<口口 |①-②-|
口口④② |③-④-|
口口③① |⑤-⑥-|
口口口口 |⑦-⑧-|

⑤口口口
⑦口口口
口⑤⑧⑦
口口⑥⑤
60
口口口口 |①-②-|
口②口① |③--④⑤⑥|
∨口口口 |⑦-⑧-|
①口口③ |⑨--⑩⑪⑫|

口口④口
口⑨⑤口
口⑧⑥⑨
⑤口⑦口

⑩⑪⑫口
口口口口
口口口口
口口口口
61
口口口① |①-②-|
②④口∧ |③-④-|
口③口口 |⑤-⑥-|
口口口口 |⑦-⑧-|

口口口⑤
口口∨口
⑦⑧⑤口
⑤⑥口口
62
口口口∨ |①-②-|
①口②① |③-④-|
口口①口 |⑤-⑥-|
③口④口 |⑦--⑧⑨⑩|

口口口口
∨⑥口⑤
⑤口口⑦
口⑤口口

口口⑧口
口口⑨口
⑨口⑩口
口口口口
63
②③口口 |①-②-|
③④⑤口 |③-④-|
口⑤⑥口 |⑤-⑥-|
口口①口 |⑦-⑧-|

口口口口
口口口口
口口口⑦
口口⑦⑧
64
口>①口 |①---|
∨口口口 |----|
①口口口 |----|
口口口口 |----|
65
口口口口 |①---|
口口口口 |----|
口>―① |----|
口口口口 |----|

口口口口
口口∨口
口口|口
口口①口
66
口口口∨ |①---|
口口口① |----|
口口口口 |----|
①口口 |----|
67
口口口口 |----|
口口口口 |----|
口口口口 |----|
口口口口 |----|
68
口口口口 |----|
口口口口 |----|
口口口口 |----|
口口口口 |----|
69
口口①口 |①---|
口口口① |----|
①口口① |----|
口①①口 |----|
最終更新:2020年01月03日 15:19