アットウィキロゴ
HEAVENLY MOON [ 2 ]
Tatsh

EXTREME

Level: 10.2
BPM: 185
Notes(hold): 806(28)

1
口口口口 |----|
口口口口 |----|
口口口口 |----|
口口口口 |----|
2
①口口③ |①-②-|
⑤②④⑦ |③-④-|
口⑥⑧口 |⑤-⑥-|
口口口口 |⑦-⑧-|
3
口口口口 |①-②-|
口口口口 |③-④-|
①口口③ |----|
口②④口 |----|
4
①口口③ |①-②-|
⑤②④⑦ |③-④-|
口⑥⑧口 |⑤-⑥-|
口口口口 |⑦-⑧-|
5
口口口口 |①-②-|
口口口口 |③-④-|
①口口③ |----|
口②④口 |----|
6
①口口③ |①-②-|
⑤②④⑦ |③-④-|
口⑥⑧口 |⑤-⑥-|
口口口口 |⑦-⑧-|
7
口口口口 |①-②-|
口口口口 |③-④-|
①口口③ |----|
口②④口 |----|
8
口③⑤口 |①-②-|
口⑥①口 |③---|
口②口口 |④---|
口④④口 |⑤-⑥-|
9
⑤⑥⑩④ |①--②|
③⑦⑪口 |--③-|
口⑧⑫② |④-⑤-|
①⑨⑬① |⑥⑦⑧⑨⑩⑪⑫⑬|
10
口口口④ |①---|
口口口① |②---|
②口口① |③---|
口口口③ |④---|
11
口口∨口 |①---|
口口┃口 |----|
口口①口 |----|
口口口口 |----|
12
④口口口 |①---|
口口口② |②---|
口口①口 |③---|
口③口口 |④---|
13
口∨口口 |①---|
口┃③口 |----|
口①口② |②---|
口口口口 |③---|
14
口①<口 |①---|
口口口口 |----|
口①②口 |----|
口口口口 |②---|
15
口①口口 |①---|
口口口口 |----|
口口口口 |----|
口>①口 |----|
16
口口口口 |①---|
口口口口 |----|
口①<口 |----|
口口①口

口口口口
口口③②
口②口口
口口口口 |②-③-|
17
口口口口 |①---|
口口口口 |----|
口口>① |----|
口口口口 |----|
18
口口口口 |①---|
口口口口 |----|
口口口① |----|
口①口口 |----|
19
口①④口 |①②--|
口②③④ |③--④|
④②③④ |----|
口④④口 |----|
20
⑤⑧④① |①--②|
①④⑧⑤ |③-④-|
口⑥②口 |⑤--⑥|
口⑦③口 |⑦-⑧-|
21
⑤⑧④① |①--②|
①④⑧⑤ |③-④-|
口⑥②口 |⑤--⑥|
口⑦③口 |⑦-⑧-|
22
⑤⑧④① |①--②|
①④⑧⑤ |③-④-|
口⑥②口 |⑤--⑥|
口⑦③口 |⑦-⑧-|
23
口口④① |①--②|
①④⑨⑤ |③-④-|
⑥⑧②口 |⑤-⑥-|
口口③⑦ |⑦-⑧⑨|
24
⑤⑧④① |①--②|
①④⑧⑤ |③-④-|
口⑥②口 |⑤--⑥|
口⑦③口 |⑦-⑧-|
25
⑤⑧④① |①--②|
①④⑧⑤ |③-④-|
口⑥②口 |⑤--⑥|
口⑦③口 |⑦-⑧-|
26
⑨⑦⑧⑥ |①-②-|
①口口⑤ |③---|
④口③口 |④-⑤-|
②口口口 |⑥⑦⑧⑨|
27
口口口口 |①-②-|
口口②口 |③---|
口①口口
口③③口

口⑧⑤口
④⑥口⑤
⑥⑧⑦口 |④---|
口口口⑦ |⑤⑥⑦⑧|
28
②口⑤① |①---|
口口③∨ |②-③-|
口口口① |④---|
⑤④②口 |⑤---|
29
口口口口 |①---|
①━<口
口口口①
口口口①

口⑤口口
口口③口 |②-③-|
口口口口 |④---|
⑤④②口 |⑤---|
30
口口口口 |①---|
①>━①
口口口口
口口口①

口口口口
口③口口 |②-③-|
口口⑤口 |④---|
⑤④②口 |⑤---|
31
①③⑧口 |①-②-|
口⑦口⑤ |③-④-|
④②⑥⑤ |⑤-⑥-|
口⑤口∧ |⑦-⑧-|
32
口口口口 |①---|
①━<口
口口口①
口口口①

口⑤口口
口口③口 |②-③-|
口口口口 |④---|
⑤④②口 |⑤---|
33
口口口口 |①---|
①>━①
口口口口
口口口①

口口口口
口②口口 |--②-|
口口口口 |----|
口③口口 |③---|
34
①口口口 |①---|
┃④③① |②---|
┃⑥⑤口 |③-④-|
∧口②① |⑤-⑥-|
35
①⑥⑤口 |①-②-|
⑧口⑪⑦ |③-④-|
④⑩⑨① |⑤⑥⑦⑧|
口③②口 |⑨⑩⑪-|
36
口口口口 |----|
口口口口 |----|
口口口口 |----|
口口口口 |----|
37
口⑤⑤① |①---|
口口③② |②-③-|
口口口① |--④-|
口④口口 |⑤---|
38
①⑤⑤口 |①---|
②③口口 |②-③-|
①口口口 |--④-|
口口④口 |⑤---|
39
口⑤⑤① |①---|
口口③② |②-③-|
口口口① |--④-|
口④口口 |⑤---|
40
口⑤⑤口 |①-②-|
①⑦口③ |③-④-|
口②④口 |--⑤-|
①⑥⑥③ |⑥-⑦-|
41
口⑤⑤① |①---|
口口③② |②-③-|
口口口① |--④-|
口④口口 |⑤---|
42
①⑤⑤口 |①---|
②③口口 |②-③-|
①口口口 |--④-|
口口④口 |⑤---|
43
口口④口 |①---|
口口口① |②-③-|
口口③② |--④-|
口⑤⑤① |⑤---|
44
口口>④ |①-②-|
①口③口 |③-④-|
口②>④
①口口口

口口口⑥
口⑤口口
口口口⑥ |--⑤-|
口⑥⑥口 |⑥---|
45
口①口∨ |①---|
①口②┃ |--②-|
口②口③ |----|
>━③口 |③---|
46
口⑤口口 |①---|
①④口口 |--②-|
口③②口 |③-④-|
口口口口 |⑤---|
47
口口口口 |①---|
∨口口② |②---|
①口口①
口口①口

口口口口
口口③口
③④∧口 |③---|
口口口口 |④---|
48
∨口口口 |①-②-|
①口①② |③-④-|
口口③口
口④①口

口口口口
口口⑦口
口⑤口⑥ |--⑤-|
口口口口 |⑥-⑦-|
49
⑦⑧②① |①-②-|
①口口③ |③-④-|
①口⑥⑦ |⑤-⑥-|
③⑤④⑤ |⑦-⑧-|
50
口口⑥⑤ |①-②-|
①④③⑦ |③-④-|
①②口⑦ |⑤-⑥-|
③口⑧⑤ |⑦-⑧-|
51
③④口口 |①-②-|
⑤⑧⑦口 |③-④-|
①⑥②⑦ |⑤-⑥-|
③①口⑤ |⑦-⑧-|
52
⑦⑧②① |①-②-|
口口口③ |③-④-|
①口⑥⑦ |⑤-⑥-|
③⑤④⑤ |⑦-⑧-|
53
口口②口 |①-②-|
①④①③ |③-④-|
口②口口
③口口④

⑥口口⑦
口口⑧口
⑤口⑤⑨ |⑤-⑥-|
口⑥⑩口 |⑦⑧⑨⑩|
54
口∨口口 |①---|
口┃口口
口①口口
口口口口

口口口口
口口口口 |②---|
口②口口 |----|
口口口口 |----|
55
③⑧口① |①-②-|
口④②口 |③-④-|
⑤⑦⑥⑤ |⑤-⑥⑦|
①⑨⑨③ |⑧-⑨-|
56
③⑦⑥① |①-②-|
⑪④②⑩ |③-④-|
⑤口口⑤ |⑤-⑥⑦|
①⑨⑧③ |⑧⑨⑩⑪|
57
③⑧口① |①-②-|
口④②口 |③-④-|
⑤⑦⑥⑤ |⑤-⑥⑦|
①⑨⑨③ |⑧-⑨-|
58
③口②① |①-②-|
口⑪⑩④ |③-④-|
⑤⑦⑥⑤ |⑤-⑥⑦|
①⑨⑧③ |⑧⑨⑩⑪|
59
③⑧②① |①-②-|
口口口④ |③-④-|
⑤⑦⑥⑤ |⑤-⑥⑦|
①⑨⑨③ |⑧-⑨-|
60
③口②① |①-②-|
口⑪⑩④ |③-④-|
⑤⑦⑥⑤ |⑤-⑥⑦|
①⑨⑧③ |⑧⑨⑩⑪|
61
③⑧口① |①-②-|
②口口④ |③-④-|
⑤⑦⑥⑤ |⑤-⑥⑦|
①口⑨③ |⑧-⑨-|
62
口口口口 |①②③④|
①⑤⑥④ |⑤⑥⑦⑧|
口口⑧口
③⑦口②

⑬⑪口⑩
⑭口口口
⑮⑨口⑫ |⑨⑩⑪⑫|
⑯口口口 |⑬⑭⑮⑯|
63
口⑦①④ |①-②-|
⑦口④① |③-④-|
口⑥⑤口 |⑤-⑥-|
⑧口③② |⑦-⑧-|
64
②口口口 |①-②-|
口②口口 |③-④-|
③口口④
口①口口

口口⑦⑤
口口⑦⑤
口⑧⑥口 |⑤-⑥-|
口⑧⑥口 |⑦-⑧-|
65
④①⑦⑦ |①-②-|
①④⑥⑧ |③-④-|
②口口③ |⑤-⑥-|
口口口⑤ |⑦-⑧-|
66
口口口口 |①-②-|
口口口口 |③---|
口③③②
口①①口

④口口口
口口⑤口
④口口口 |④-⑤-|
⑨⑧⑦⑥ |⑥⑦⑧⑨|
67
⑦①④口 |①-②-|
①⑦口④ |③-④-|
⑥②③⑤ |⑤-⑥-|
⑧口口口 |⑦-⑧-|
68
口②口口 |①-②-|
②口口口 |③-④-|
口③④口
口①口口

口口口⑤
口⑥口口
口口口⑤ |⑤-⑥-|
⑦⑧⑨⑩ |⑦⑧⑨⑩|
69
④④①口 |①-②-|
口口②① |③-④-|
口口③口
口口口口

口口口口
⑨口口⑧
⑤⑤口⑥ |⑤-⑥-|
口⑦口口 |⑦-⑧⑨|
70
⑩④⑪① |①②③④|
⑭⑥⑦⑮ |⑤⑥⑦⑧|
⑯⑧⑤⑬ |⑨⑩⑪⑫|
②⑫③⑨ |⑬⑭⑮⑯|
71
⑥⑥③⑤ |----|
口①①口 |①-②-|
口口④口 |③-④-|
③⑤②口 |⑤-⑥-|
72
口口口口 |①-②-|
②口③口 |③-④-|
口①口口
口口④口

⑧口⑤⑥
口口口口
口⑧⑥⑤ |⑤-⑥-|
口⑦口口 |⑦-⑧-|
73
口①⑤⑦ |①-②-|
②⑥③① |③-④-|
①口口⑧ |⑤-⑥-|
⑤⑦④口 |⑦-⑧-|
74
④①口口 |①-②-|
③口口口 |③-④-|
②口口口
口口口①

口口⑤⑨
口口⑥⑩
口口⑦⑪ |⑤⑥⑦⑧|
⑤⑨⑧⑫ |⑨⑩⑪⑫|
75
①①④④ |----|
①口②口 |①-②-|
口口口口 |③---|
③口③⑤ |④-⑤-|
76
⑧③⑥口 |①-②-|
口①④口 |③-④-|
①②⑤④ |⑤-⑥-|
口口⑦⑦ |⑦-⑧-|
77
口口口口 |①--②|
口口④口 |--③-|
∨⑤口② |④--⑤|
①③⑥口 |--⑥-|
78
口口口∨ |①--②|
②口口┃ |--③-|
口口口①
①③口口

口∨口口
口④口口
口口⑤④ |④-⑤-|
口口口口

口口口⑦
口⑧口口
口⑥口口
口口口口 |⑥-⑦⑧|
79
⑥④①⑦ |①-②-|
②⑧③① |③-④-|
⑤⑦⑧④ |⑤-⑥-|
③⑤②⑥ |⑦-⑧-|
80
⑤③①⑦ |①-②-|
③口⑥① |③-④-|
口⑧⑧⑥ |⑤-⑥-|
⑦④②⑤ |⑦-⑧-|
81
⑦②①⑥ |①-②-|
②④⑧③ |③-④-|
①⑧⑦⑤ |⑤-⑥-|
⑥③⑤④ |⑦-⑧-|
82
⑦①③⑤ |①-②-|
①⑥口③ |③-④-|
⑥⑧⑧口 |⑤-⑥-|
⑤②④⑦ |⑦-⑧-|
83
口②②口 |①---|
①口①② |--②-|
口口口② |----|
口①口口

>━━③
口③口口
口口③口
③━━< |③---|
84
口口口① |----|
口④③口 |----|
口②①口 |----|
①口口口 |①②③④|
85
口②①口 |①---|
②口口① |--②-|
①口口② |----|
口①②口

③口口∨
┃口③┃
┃③口┃
∧口口③ |③---|
86
口口口口 |----|
口口口口 |----|
口口口口 |----|
口口口口 |----|
87
口口口口 |①---|
口④①口 |②---|
口②③口 |③---|
口口口口 |④---|
88
⑤②口口 |①---|
④⑤③口 |②---|
口③⑤④ |③-④-|
口口①⑤ |⑤---|
最終更新:2019年11月22日 19:06