Necroxis Girl
BEMANI Sound Team "HuΣeR"
EXTREME
Level: 10.6
BPM: 150
Notes(
hold): 717(34)
 
1
口口口口 |----|
口口口口 |----|
口口口口 |----|
口口口口 |----|
2
口口口口 |----|
口口口口 |----|
口口口口 |----|
口口口口 |----|
3
口口口口 |----|
口口口口 |----|
口口口口 |----|
口口口口 |----|
4
口口口口 |----|
口口口口 |----|
口口口口 |----|
口口口口 |----|
5
口口口口 |----|
口口口口 |----|
口口口口 |----|
口口口口 |----|
6
口口口口 |----|
口口口口 |----|
口口口口 |----|
口口口口 |----|
7
口口口口 |----|
口口口口 |----|
口①①口 |----|
口口口口 |--①-|
8
①━━< |①---|
口口口口 |----|
口口口口 |----|
口口口口 |----|
9
①口口口 |①---|
>━━① |----|
口口口口 |----|
口口口口
 
口口口口
口口口
②
口口口口
口口口口 |②---|
10
口口口口 |①---|
口口口口 |----|
①━━< |----|
口口口口
 
口口口口
口口口口
②口口口
口口口口 |②---|
11
口口口口 |①---|
口口口口 |----|
口口口口 |----|
>━━①
 
口口口口
口口口口
口②②口
口口口
② |--②-|
12
>━━① |①---|
口口口口 |----|
口口口口 |----|
口口口口
 
口口口
②
口口口口
口口口口
口口口口 |②---|
13
口口口口 |①---|
①━━< |----|
口口口口 |----|
口口口口
 
口口口口
②口口口
口口口口
口口口口 |②---|
14
口口口口 |①---|
口口口口 |----|
>━━① |----|
口口口口
 
口口口口
口口口口
口口口
②
口口口口 |②---|
15
①⑨⑫④ |①②③④|
⑤⑦②⑧ |⑤⑥⑦⑧|
⑪
∨∨⑩ |⑨⑩⑪⑫|
③
⑬⑬⑥ |⑬-|
 
口口口口
口口口口
口口口口
口
⑭⑭口 |⑭-|
16
①口口① |①---|
┃口口② |②---|
┃口口③ |③---|
∧口口④ |④---|
17
⑥口口① |①---|
口⑤④② |②---|
口⑦⑥③ |③---|
口口口口 |④⑤⑥⑦|
18
口②口
① |①---|
口③口
┃ |②---|
口口口
┃ |③---|
口口口
∧
 
口口口
⑤
口口口口
口④口口
口口口口 |④-⑤-|
19
∨口口口 |①---|
┃口口口 |②---|
┃口口② |③---|
①口口③
 
口口口口
口⑤④口
口⑦⑥口
④口口口 |④⑤⑥⑦|
20
⑯③②① |①②③④|
⑮⑨⑧⑦ |⑤⑥⑦⑧|
⑭⑫⑪⑩ |⑨⑩⑪⑫|
⑬⑥⑤④ |⑬⑭⑮⑯|
21
⑯⑥⑤④ |①②③④|
⑮⑫⑪⑩ |⑤⑥⑦⑧|
⑭⑨⑧⑦ |⑨⑩⑪⑫|
⑬③②① |⑬⑭⑮⑯|
22
⑯③②① |①②③④|
⑮⑨⑧⑦ |⑤⑥⑦⑧|
⑭⑫⑪⑩ |⑨⑩⑪⑫|
⑬⑥⑤④ |⑬⑭⑮⑯|
23
⑩⑨⑨口 |①②③④|
⑪④口③ |⑤⑥⑦⑧|
⑫⑦⑥⑤ |⑨---|
⑬②⑧① |⑩⑪⑫⑬|
24
口口③② |①---|
口①口口 |②-③-|
口口③②
口①口口
 
⑤⑥口口
口口④口
口④口口 |④-⑤-|
⑤⑥口口 |⑥---|
25
④⑤②① |①-②-|
⑥③⑧⑥ |③-④-|
口⑦③口 |⑤-⑥-|
④⑤②① |-⑦⑧-|
26
口口
①< |①-|
口口口口
口口
>①
口口口口
 
口④
②口 |-②|
口③口口 |③-④-|
④口口
②
③②口口
 
⑦口口口
口口⑧口
口⑨口口 |⑥-|
口口⑩
⑥ |⑦⑧⑨⑩|
27
口口②口 |①②③④|
①③口口
口口④口
口口口口
 
∨口口口
┃口口口
┃口口口 |⑤---|
⑤口口口
 
⑧口口⑦
口口口口
口口口口 |⑥-⑦-|
⑥⑧⑦口 |⑧---|
28
口①②口 |①-②-|
③口
∨③ |③---|
②口
┃① |④---|
③口
④③
 
⑤口口⑥
口⑦口口
口⑤口口
口口
⑤口 |⑤-⑥⑦|
29
口口①口 |-①②③|
②口口⑤ |④-⑤-|
口口口③
口④口⑤
 
⑧⑨⑩口
口口⑥口
口口口口 |⑥-⑦-|
⑦口⑥口 |⑧⑨⑩-|
30
口口口口 |①-②-|
③口③口 |③-④-|
④①④①
口②口②
⑥口⑥口
口⑤口口
口⑧口⑧ |⑤-⑥-|
口口⑦口 |⑦-⑧-|
31
⑤口⑤③ |①-②-|
①④②⑨ |③-④-|
口口③⑧ |⑤-⑥-|
⑥①口⑦ |⑦⑧⑨-|
32
⑧②⑩③ |①-②-|
①⑦④⑨ |③-④-⑤-|
口②⑤口 |⑥-⑦-⑧-|
⑥①口口 |--⑨-⑩-|
33
口③口④ |①-②-③-|
口⑤②⑩ |--④-⑤-|
口口⑧⑦ |⑥-⑦-⑧-|
⑨①⑥口 |--⑨-⑩-|
34
①②③口 |①-②-③-|
①②③口 |④-⑤-⑥-|
口⑥⑤④
口⑥⑤④
⑩口口⑧
⑨⑪口口
⑦口口口 |⑦-⑧-⑨-|
⑦口口口 |--⑩-⑪-|
35
口口②口 |①-②-③-|
口口④③ |--④-⑤-|
口⑤口口
口口①口
⑧口口口
⑩口口口
⑥口口口 |⑥---⑦-|
⑥⑦⑦⑨ |⑧-⑨-⑩-|
36
口③②① |①-②-③-|
口③②① |④⑤⑥⑦|
口⑤④口
口⑦⑥口
⑪口口⑩
⑨⑫口口
⑧口口⑧ |⑧-⑨-⑩-|
口口口口 |--⑪-⑫-|
37
口口②口 |①-②-③-|
口口④③ |--④-⑤-|
口⑤口口
①口口口
口⑦口口
⑧口口口
口口口口 |⑥-⑦-⑧-|
⑨⑩⑪⑥ |⑨-⑩-⑪-|
38
⑦⑤③① |①②③④|
⑧⑥④② |⑤⑥⑦⑧|
⑦⑤③①
口口口口
口口口⑪
口口⑬⑫
口口口⑪ |⑨--⑩|
口⑨⑩⑨ |⑪-⑫⑬|
39
②③④口 |①-②-|
口①口口 |③-④-|
②③④口
口口口口
口口口⑤
⑤⑦⑧⑨
口口口⑥ |⑤-⑥-|
⑥口口口 |⑦⑧⑨-|
40
口
∨口口 |①---|
口
┃口口 |----|
口
┃口口 |----|
口
①口口 |----|
41
口口口口 |----|
口口口口 |----|
口口口口 |----|
口口口口 |----|
42
口口口
∨ |①---|
口口口
┃ |----|
口口口
┃ |----|
口
①口
① |----|
43
口口口口 |----|
口口口口 |----|
①口口口 |----|
口口口
① |--①-|
44
口
∨口口 |①---|
口
┃口口 |----|
口
┃口口 |----|
口
①口口 |----|
45
口口口口 |----|
口口口口 |----|
口口口口 |----|
口口口口 |----|
46
口口口
∨ |①---|
口口口
┃ |----|
口口口
┃ |----|
口
①口
① |----|
47
③⑦口② |①②③④|
口口④口 |⑤⑥⑦⑧|
口①⑥口
⑤口⑧
①
 
口口口⑩
⑨⑪口⑨
⑨口口⑨ |⑨---|
⑬口口⑫ |⑩⑪⑫⑬|
48
①口①⑦ |①---|
②口④口 |②-③④|
⑤⑤⑧③ |⑤---|
⑥口口口 |⑥-⑦⑧|
49
①①②口 |①--②|
③口口② |③-④-|
口口口口
口④④口
口口口⑥
口⑦口⑧
⑤口口⑤ |⑤---|
⑨口口口 |⑥⑦⑧⑨|
50
①口①⑦ |①---|
②口④口 |②-③④|
⑤⑤⑧③ |⑤---|
⑥口口口 |⑥-⑦⑧|
51
①口①口 |①--②|
③①②口 |③-④-|
口②口口
口④④口
口口口⑥
口⑦口⑧
⑤口口⑤ |⑤---|
⑨口口口 |⑥⑦⑧⑨|
52
①口①⑥ |①---|
口口③口 |--②③|
口④⑦② |④---|
⑤口口口 |⑤-⑥⑦|
53
①①②⑤ |①--②|
口口⑥② |--③-|
④⑦口④ |④---|
口③③口 |⑤⑥⑦-|
54
口口③口 |①-②-|
⑦⑧⑥① |③-④-|
④⑨口⑤ |⑤-⑥-|
⑦⑩②⑤ |⑦--⑧⑨⑩|
55
⑤⑤①① |①--②③④|
口口⑥② |⑤--⑥⑦⑧|
口口⑦③
口口⑧④
口口⑪⑪
口口口口
口⑩口口 |⑩-|
⑩⑫口口 |⑪-⑫-|
56
①口口口 |①②③④|
③⑤口② |⑤⑥⑦⑧|
⑦口⑥④
口口⑧口
 
口⑨⑨⑬
⑭口⑫口
口⑪口口 |⑨-⑩⑪|
⑩⑭口口 |⑫⑬⑭-|
57
④口口口 |①②③④|
口③口⑤ |⑤-⑥⑦|
口⑦②口
⑥口⑤①
⑫口⑫⑨
⑩口⑧口
口口⑪口 |⑧⑨⑩-|
口⑩口⑪ |⑪-⑫-|
58
口④口⑤ |①②③-|
⑥②⑦① |④⑤⑥⑦|
口③口③
②⑥①⑦
⑨口⑨口
口⑪口⑩
⑧⑬⑧⑫ |⑧-⑨-|
口口口口 |⑩⑪⑫⑬|
59
口②口① |①②③④|
∨口
∨口 |⑤-|
⑤口
⑤口
④口③口
 
⑥口⑥口
⑧⑧口⑨ |-⑥|
⑥⑦
⑥⑩ |--⑦-|
口口口⑪ |⑧⑨⑩⑪|
60
②③③口 |①-②-|
∨∨①口 |③--④|
④④②口 
①③③口
 
⑨口口⑤
口口⑨⑥
⑤⑤口⑦|--⑤⑥|
口口口⑧ |⑦⑧⑨-|
61
口口口口 |①-|
口口口口
∨∨口口
①①口口
 
口⑦口⑥
④④口④ |④-|
⑨⑤⑧⑤ |⑤---|
口口④口 |⑥⑦⑧⑨|
62
口口口口 |①-②-|
③④①② |③-④-|
口口口口
④③②①
 
⑧⑦⑥⑤
口口⑨口
⑬⑫⑪⑩ |⑤-⑥-⑦-⑧--⑨--|
口口⑭口 |⑩-⑪-⑫-⑬--⑭--|
63
④③③口 |①-②-|
①②④口 |③-④-|
口口口口
②①口口
口口口⑤
口口口口
口⑥⑥⑤ |⑤-⑥-|
口⑨⑧⑦ |⑦⑧⑨-|
64
口⑤④③ |①-②-|
①⑤④③ |③-④-⑤-|
②口
∨∨ |⑥---|
①口
⑥⑥
 
口口口口
口口口口
口⑨⑧口
⑦口
⑦⑦ |⑦-⑧⑨|
65
⑦⑥⑤口 |①-②③|
④③②口 |④-⑤⑥|
①⑧口⑩ |⑦-⑧-|
口口⑨⑪ |⑨-⑩⑪|
66
口③②① |①-②-③-|
口③②① |④-⑤-⑥-|
④⑤⑥口
④⑤⑥口
 
⑦口口口
⑦⑨⑩口
口口口口 |⑦---|
口口口⑧ |⑧-⑨⑩|
67
口②③④ |①-②③|
口口⑧① |④-⑤⑥|
口⑤⑥⑦ |⑦-⑧-|
⑩⑨⑨⑪ |⑨-⑩⑪|
68
①③⑤⑦ |①②③④|
②④⑥⑧ |⑤⑥⑦⑧|
①③⑤⑦
口口口口
口口口口
口口口口
⑪⑫口口 |⑨---|
⑩⑨⑨口 |⑩-⑪⑫|
69
②③④口 |①-②③|
⑤⑥⑦口 |④-⑤⑥|
⑧口①口 |⑦-⑧-|
⑪⑨⑨⑩ |⑨-⑩⑪|
70
⑦⑤③① |①②③④|
⑧⑥④② |⑤⑥⑦⑧|
⑦⑤③①
口口口口
口口口⑪
口口口⑪
口⑬⑫口 |⑨--⑩|
⑩⑨⑨口 |⑪-⑫⑬|
71
口①①口 |①-②-|
②④②口 |③-④-|
④口口口
口③口口
⑥口⑩⑦
⑨口口⑧
口口口⑤ |⑤-⑥-|
⑥口⑤⑦ |⑦⑧⑨⑩|
72
口口口口 |①---|
口
∨∨口 |----|
口
①①口 |----|
口口口口 |----|
73
口口口口 |①---|
口口口口 |----|
口
①①口 |----|
口口口口 |----|
 
最終更新:2019年11月26日 19:04