アットウィキロゴ
たからもの
セリカ&エリカ

BASIC

Level: 3
BPM: 182
Notes: 304

1
口口口口 |----|
口口口口 |----|
口口口口 |----|
口口口口 |----|
2
①口口① |①---|
口口②口 |----|
口口口口 |②---|
口口口口 |----|
3
口口口口 |①---|
口口口口 |----|
口口①口 |②---|
口口②口 |----|
4
口口口口 |①---|
③口口③ |----|
口②口口 |②---|
口①口口 |--③-|
5
口口口口 |----|
③口口③ |----|
口②①口 |①---|
口口口口 |②-③-|
6
口①②③ |----|
口口口口 |①---|
口口口口 |②---|
口口口口 |③---|
7
口口口口 |①---|
④③②① |②---|
口口口口 |③---|
口口口口 |④---|
8
口口口口 |①---|
口口口口 |②---|
①②③④ |③---|
口口口口 |④---|
9
口口口口 |①---|
口口口口 |②---|
口⑤⑤口 |③---|
④③②① |④-⑤-|
10
口口口口 |----|
口口口① |①---|
口口口② |②---|
口口口③ |③---|
11
口口④口 |①---|
口口③口 |②---|
口口②口 |③---|
口口①口 |④---|
12
口①口口 |①---|
口②口口 |②---|
⑤③口⑤ |③---|
口④口口 |④-⑤-|
13
③口口③ |----|
口①②口 |①---|
口口口口 |②---|
口口口口 |--③-|
14
③口口③ |----|
口①②口 |①---|
口口口口 |②---|
口口口口 |--③-|
15
口①口口 |----|
口口口口 |----|
口口口口 |①---|
口口口口 |----|
16
口口①口 |①---|
口②口口 |----|
口口口口 |②---|
口口口口 |----|
17
口口口口 |①---|
口口①口 |----|
口②口口 |②---|
口口口口 |----|
18
口口口口 |①---|
口口口口 |----|
③口①③ |②---|
口②口口 |--③-|
19
口口①口 |----|
口口口口 |----|
口口口口 |①---|
口口口口 |----|
20
口①口口 |①---|
口口②口 |----|
口口口口 |②---|
口口口口 |----|
21
口口口口 |①---|
口①口口 |----|
口口②口 |②---|
口口口口 |----|
22
口口口口 |①---|
口口口口 |----|
口①口口 |②---|
口口②口 |----|
23
口口口口 |①---|
口口口口 |----|
口①①口 |----|
口口口口 |----|
24
口口口口 |①---|
①②③④ |②---|
口口口口 |③---|
口口口口 |④---|
25
口①①口 |----|
口口口口 |----|
口口口口 |----|
口口口口 |--①-|
26
口口口口 |----|
口口口口 |----|
口口口口 |----|
口口口口 |----|
27
口口口口 |①---|
口口口口 |----|
口①①口 |----|
口口口口 |----|
28
口口口口 |①---|
④③②① |②---|
口口口口 |③---|
口口口口 |④---|
29
口①①口 |----|
口口口口 |----|
口口口口 |----|
口口口口 |--①-|
30
口口口口 |----|
口口口口 |----|
口口口口 |----|
口口口口 |----|
31
口口口① |①---|
口口口② |②---|
口口口③ |③---|
口口口口 |----|
32
①口口① |----|
口口口口 |----|
口口口口 |----|
口口口口 |--①-|
33
口口口口 |----|
口①口口 |①---|
口②口口 |②---|
口口口口 |----|
34
口口口口 |----|
口口口口 |----|
口口口口 |----|
口口口口 |----|
35
口口口口 |①---|
口口④口 |②---|
口③②口 |③---|
口①①口 |④---|
36
口③②④ |①---|
口①口口 |②---|
口口口口 |③---|
口口口口 |④---|
37
口口口口 |①---|
口①②口 |②---|
口③④口 |③---|
口口口口 |④---|
38
口口口口 |----|
口口口口 |----|
口口口口 |----|
口口口口 |----|
39
口口口④ |①---|
口口③口 |②---|
口②口口 |③---|
①口口口 |④---|
40
口①①口 |①---|
口口口口 |----|
口口口口 |②---|
口②②口 |----|
41
④口口口 |①---|
口③口口 |②---|
口口②口 |③---|
口口口① |④---|
42
口①①口 |①---|
口口口口 |----|
口口口口 |②---|
口②②口 |----|
43
口口口口 |①---|
口③④口 |②---|
口①②口 |③---|
口口口口 |④---|
44
口口口口 |①---|
①口口② |②---|
③口口④ |③---|
口口口口 |④---|
45
口④口口 |①---|
口③口口 |②---|
口②口口 |③---|
口①口口 |④---|
46
口口①口 |①---|
口口②口 |②---|
口口③口 |③---|
口口④口 |④---|
47
口口口④ |①---|
口口③口 |②---|
口②口口 |③---|
①口口口 |④---|
48
口①①口 |①---|
口口口口 |----|
口口口口 |②---|
口②②口 |----|
49
④口口口 |①---|
口③口口 |②---|
口口②口 |③---|
口口口① |④---|
50
口①①口 |①---|
口口口口 |----|
口口口口 |②---|
口②②口 |----|
51
口口口口 |①---|
口口口口 |----|
口口口口 |----|
①口口① |----|
52
口口口口 |①---|
口口口口 |----|
①口口① |----|
口口口口 |----|
53
口口口口 |①---|
①口②① |----|
口口口口 |----|
口口口口 |--②-|
54
口口口口 |--①-|
口口口口 |--②-|
③①口③ |③---|
④口②④ |--④-|
55
口口口口 |----|
口口口口 |----|
①口口口 |①---|
口口口口 |----|
56
口口口口 |①---|
口口口口 |----|
口①②口 |②---|
口口口口 |----|
57
口口口口 |①---|
口口口② |----|
口口口① |②---|
口口口口 |----|
58
③口口③ |①---|
口②①口 |----|
口口口口 |②---|
口口口口 |--③-|
59
口口口口 |----|
口①口口 |----|
口口口口 |①---|
口口口口 |----|
60
口口口口 |①---|
口口①口 |----|
口②口口 |②---|
口口口口 |----|
61
口口口口 |①---|
口口口口 |----|
③口①③ |②---|
口②口口 |--③-|
62
①口口① |----|
口口口口 |----|
口口口口 |----|
口口口口 |--①-|
63
口口①口 |----|
口②③口 |①---|
口口口口 |②---|
口口口口 |③---|
64
口口口口 |①---|
口口口口 |②---|
口①②口 |③---|
口③④口 |④---|
65
口口口口 |①---|
口口口口 |②---|
③口口④ |③---|
①口口② |④---|
66
③口口④ |①---|
①口口② |②---|
口口口口 |③---|
口口口口 |④---|
67
口①①口 |①---|
口②②口 |----|
口口口口 |②---|
口口口口 |----|
68
口口口口 |①---|
口口口口 |----|
口①①口 |②---|
口②②口 |----|
69
口口口口 |①---|
口口口口 |----|
②口口② |②---|
①口口① |----|
70
②口口② |①---|
①口口① |----|
口口口口 |②---|
口口口口 |----|
71
口①口口 |①---|
口口②口 |----|
口口口口 |②---|
口口口口 |----|
72
口口口口 |①---|
口口口口 |----|
口①口口 |②---|
口口②口 |----|
73
口口口口 |①---|
③口口③ |----|
口口②口 |②---|
口①口口 |--③-|
74
口口口口 |----|
口口口口 |----|
口口口口 |----|
口口口口 |----|
75
①①②口 |①---|
口口②口 |----|
口口口口 |----|
口口口口 |--②-|
76
口口口口 |----|
口口口口 |----|
口口口口 |----|
口口口口 |----|
77
口口口口 |①---|
口口口口 |----|
①①②口 |----|
口口②口 |--②-|
78
口口口口 |----|
口口口口 |----|
口口口口 |----|
口口口口 |----|
79
口口口口 |①---|
口①①口 |----|
口口口口 |----|
口口口口 |----|
80
口①①口 |①---|
口口口口 |----|
口口口口 |----|
口口口口 |----|
81
口①口口 |①---|
口口②口 |----|
口口口口 |②---|
口口口口 |----|
82
口口口口 |①---|
口口口口 |----|
口①口口 |②---|
口口②口 |----|
83
口口口④ |①---|
口口③口 |②---|
口②口口 |③---|
①口口口 |④---|
84
口①①口 |①---|
口口口口 |----|
口口口口 |②---|
口②②口 |----|
85
④口口口 |①---|
口③口口 |②---|
口口②口 |③---|
口口口① |④---|
86
口①①口 |①---|
口口口口 |----|
口口口口 |②---|
口②②口 |----|
87
口口口口 |①---|
口口口口 |----|
口口口口 |----|
①口口① |----|
88
口口口口 |①---|
口口口口 |----|
①口口① |----|
口口口口 |----|
89
口口口口 |①---|
①口②① |----|
口口口口 |----|
口口口口 |--②-|
90
口口口口 |--①-|
④口口④ |--②-|
③①口③ |③---|
口口②口 |--④-|
91
口①②③ |----|
口口口口 |①---|
口口口口 |②---|
口口口口 |③---|
92
口口口口 |①---|
④③②① |②---|
口口口口 |③---|
口口口口 |④---|
93
口口口口 |①---|
口口口口 |②---|
①②③④ |③---|
口口口口 |④---|
94
口口口口 |①---|
口口口口 |②---|
口⑤⑤口 |③---|
④③②① |④-⑤-|
95
口口口口 |----|
口口口① |①---|
口口口② |②---|
口口口③ |③---|
96
口口④口 |①---|
口口③口 |②---|
口口②口 |③---|
口口①口 |④---|
97
口①口口 |①---|
口②口口 |②---|
⑤③口⑤ |③---|
口④口口 |④-⑤-|
98
③口口③ |----|
口①②口 |①---|
口口口口 |②---|
口口口口 |--③-|
99
③口口③ |----|
口①②口 |①---|
口口口口 |②---|
口口口口 |--③-|
100
口口口口 |----|
口口口口 |----|
口口口口 |----|
口口口口 |----|
101
口口口口 |----|
口口口口 |----|
口口口口 |----|
口口口口 |----|
102
口口口口 |----|
口口口口 |----|
口口口口 |----|
口口口口 |----|

accuracy: 100%
最終更新:2022年05月07日 17:39