アットウィキロゴ
たからもの
セリカ&エリカ

ADVANCED

Level: 7
BPM: 182
Notes: 652

1
口口口口 |----|
口口口口 |----|
口口口口 |----|
口口口口 |----|
2
①②④③ |①---|
①口口③ |②-③-|
⑤口口口 |--④-|
⑤口口口 |--⑤-|
3
口口③口 |--①-|
口④⑤口 |--②-|
口①②口 |--③-|
口口②口 |④-⑤-|
4
①②④③ |①---|
①⑤⑤③ |②-③-|
口口口口 |--④-|
口口口口 |--⑤-|
5
⑥⑥⑥⑥ |--①-|
口口口⑤ |--②-|
④①①口 |③-④-|
口②②③ |⑤-⑥-|
6
⑥口口⑥ |--①-|
①②③口 |②-③-|
口口⑤口 |④-⑤-|
口口④口 |--⑥-|
7
口口口口 |--①-|
口③②① |②-③-|
口⑤口口 |④-⑤-|
口④口口 |----|
8
口⑦⑦① |--①-|
②口口口 |②-③-|
⑥口口③ |④-⑤-|
④口口⑤ |⑥-⑦-|
9
⑥⑥⑥⑥ |--①-|
口口①口 |②-③-|
口⑤②口 |④-⑤-|
口④③口 |--⑥-|
10
⑥口口⑥ |--①-|
①②③口 |②-③-|
口口⑤口 |④-⑤-|
口口④口 |--⑥-|
11
口口口口 |--①-|
口③②① |②-③-|
口⑤口口 |④-⑤-|
口④口口 |----|
12
口⑦⑦① |--①-|
②口口口 |②-③-|
⑥口口③ |④-⑤-|
④口口⑤ |⑥-⑦-|
13
口⑥⑥口 |--①-|
口口①口 |②-③-|
口⑤②口 |④-⑤-|
口④③口 |--⑥-|
14
④口⑧⑧ |--①-|
⑤②①口 |②-③-|
⑥口③口 |④⑤⑥⑦|
⑦口口口 |--⑧-|
15
口⑥口口 |----|
⑥②①口 |①-②-|
口④③口 |③-④-|
口口⑤口 |⑤-⑥-|
16
口口①口 |--①-|
口口口① |--②-|
②④④③ |--③-|
口②③口 |--④-|
17
口口口口 |----|
口②①口 |--①-|
口④③口 |②---|
口口口口 |③-④-|
18
③口口③ |--①-|
①口口① |--②-|
口口口口 |----|
②口口② |--③-|
19
口口口口 |----|
⑤⑥口口 |①-②-|
①②③④ |③-④-|
口口口口 |⑤-⑥-|
20
口口①① |--①-|
口口②② |--②-|
口口③③ |--③-|
口口④④ |--④-|
21
口口口口 |----|
口①②口 |--①-|
口③④口 |②---|
口口口口 |③-④-|
22
①①②② |--①-|
口口口口 |--②-|
口口口口 |--③-|
③③④④ |--④-|
23
口口口口 |----|
口口口口 |----|
口①口口 |----|
口口口口 |①---|
24
口口口③ |①---|
⑤②①口 |②-③-|
口口④③ |--④-|
⑤口口口 |⑤---|
25
口口⑤⑤ |----|
口①②口 |①-②-|
口③④口 |③-④-|
口口口口 |--⑤-|
26
①口口口 |--①-|
口口口② |②-③-|
③口⑤口 |④-⑤-|
口口口④ |----|
27
口口口口 |①---|
口口口口 |----|
口②口口 |----|
口①①口 |②---|
28
口口口③ |①---|
⑤②①口 |②-③-|
口口④③ |--④-|
⑤口口口 |⑤---|
29
⑥⑥口口 |----|
④③②① |①-②-|
口口口⑤ |③-④-|
口口口口 |⑤-⑥-|
30
口口①口 |--①-|
口③⑤⑤ |②-③-|
口口②口 |④-⑤-|
口④口口 |----|
31
③⑥口口 |①---|
②口⑥③ |②---|
①口口② |③-④-|
口④⑤① |⑤-⑥-|
32
口口①口 |--①-|
口②口口 |②-③-|
⑥口③口 |④-⑤-|
口④⑤⑥ |--⑥-|
33
①⑤口口 |----|
②口⑤① |①---|
口口口② |②-③-|
口③④口 |④-⑤-|
34
口口①口 |--①-|
口②口口 |②-③-|
口口③口 |④-⑤-|
口④⑤口 |----|
35
口口口口 |①---|
口④③口 |----|
①②②① |②---|
口口口口 |③-④-|
36
口口④口 |----|
口口口③ |①---|
②口口口 |②---|
口口口① |③-④-|
37
口①口口 |①---|
口口②口 |②---|
口③口口 |③---|
口口④口 |④---|
38
口口口口 |①---|
口口口口 |----|
口④①口 |--②-|
口②③口 |③-④-|
39
①①①① |①---|
口③②口 |②-③-|
口口口口
口口口口

⑤口口口
口口口④
⑤口④口 |--④-|
口口口口 |--⑤-|
40
口①④③ |--①-|
口⑤②口 |--②-|
口①口口 |--③-|
口口②口 |④-⑤-|
41
口⑤④⑤ |①---|
口口口④ |②-③-|
口①①口 |--④-|
③口口② |--⑤-|
42
口口口口 |--①-|
①口①口 |--②-|
口②口② |--③-|
⑤④③口 |④-⑤-|
43
⑤①③⑤ |①---|
口①口口 |②-③-|
口④②口 |--④-|
口口口口 |--⑤-|
44
口口口口 |--①-|
口④②口 |--②-|
口口口口 |--③-|
口③①口 |--④-|
45
④③②① |①-②-|
口口口口 |③-④-|
⑤⑥⑦⑧ |⑤-⑥-|
口口口口 |⑦-⑧-|
46
口口口口 |①-②-|
④③②① |③-④-|
口⑦口口 |--⑤-|
口⑤⑥口 |⑥-⑦-|
47
①①①① |①---|
口③②口 |②-③-|
口口口口
口口口口

⑤口口口
口口口④
⑤口④口 |--④-|
口口口口 |--⑤-|
48
口①口口 |--①-|
口⑤②口 |--②-|
口①④口 |--③-|
口③②口 |④-⑤-|
49
③⑤⑤① |①---|
口口②口 |②-③-|
③口口① |--④-|
口④④口 |--⑤-|
50
口口口口 |----|
口口口口 |----|
口①①口 |----|
口口口口 |①---|
51
口口口口 |①---|
①③③② |--②-|
口口口口 |----|
②口口① |③---|
52
①口口② |①---|
口口口口 |--②-|
②③③① |----|
口口口口 |③---|
53
口④④口 |①---|
①口口② |--②-|
口③③口 |--③-|
②口口① |--④-|
54
⑤口口⑤ |--①-|
口①①口 |--②-|
口③③口 |③---|
④②②④ |④-⑤-|
55
④④口口 |----|
口①①口 |①---|
口③②口 |②-③-|
口口口口 |--④-|
56
口口⑥⑥ |--①-|
④③②① |②-③-|
⑤口口口 |④-⑤-|
口口口口 |--⑥-|
57
①①④④ |--①-|
③③②② |--②-|
口口口口 |--③-|
口口口口 |--④-|
58
⑤④⑥⑥ |--①-|
口口③口 |②-③-|
口②口口 |④---|
口口①口 |⑤-⑥-|
59
⑥⑥口口 |--①-|
口①②口 |②-③-|
口③④口 |④-⑤-|
口⑤口口 |--⑥-|
60
口口④④ |--①-|
口口①① |--②-|
②②口口 |--③-|
口口③③ |--④-|
61
①①④④ |--①-|
③③②② |--②-|
口口口口 |--③-|
口口口口 |--④-|
62
①①①① |----|
口口口口 |----|
口口口口 |----|
口口口口 |--①-|
63
口口口⑥ |--①-|
④口口① |②-③-|
口口⑤⑥ |④-⑤-|
②口口③ |--⑥-|
64
口口口口 |--①-|
③②①口 |②-③-|
④⑤⑥⑦ |④-⑤-|
口口口口 |⑥-⑦-|
65
②口①口 |----|
口③口① |①---|
口口④口 |②-③-|
口口口⑤ |④-⑤-|
66
③口口① |--①-|
口④口口 |--②-|
口口口口 |--③-|
②口口口 |④---|
67
口④⑤口 |--①-|
口⑥③口 |②-③-|
口②⑦口 |④-⑤-|
口口①口 |⑥-⑦-|
68
口口口③ |①---|
①口口① |②-③-|
口口口② |----|
口口口口 |----|
69
①①⑤⑤ |-①--|
②②口口 |-②--|
口④③口 |--③-|
口口口口 |④-⑤-|
70
口口口口 |----|
口③③口 |①---|
口口②② |②---|
口口①① |③---|
71
①口口② |--①-|
③口口④ |②-③-|
⑤口口⑥ |④-⑤-|
⑦口口口 |⑥-⑦-|
72
口口口口 |①-②-|
口口口口 |③-④-|
口④口口 |----|
口②③① |----|
73
⑤⑤⑤⑤ |--①-|
①②口口 |②---|
口口④③ |③-④-|
口口口口 |--⑤-|
74
口口口口 |----|
口口口口 |----|
口③口口 |--①-|
口①②口 |②-③-|
75
⑤口口④ |①---|
口③②口 |②-③-|
口口①口 |--④-|
口口口口 |--⑤-|
76
口①④③ |--①-|
口⑤②口 |--②-|
口口口口 |--③-|
口口口口 |④-⑤-|
77
口口④⑤ |①---|
口口口口 |②-③-|
口口①口 |--④-|
③口口② |--⑤-|
78
口口口口 |--①-|
①口口口 |--②-|
口口口② |--③-|
⑤④③口 |④-⑤-|
79
⑤①③⑤ |①---|
口①口口 |②-③-|
口④②口 |--④-|
口口口口 |--⑤-|
80
口口口口 |--①-|
口④②口 |--②-|
口口口口 |--③-|
口③①口 |--④-|
81
④③②① |①-②-|
口口口口 |③-④-|
⑤⑥⑦⑧ |⑤-⑥-|
口口口口 |⑦-⑧-|
82
口口口口 |①-②-|
④③②① |③-④-|
口⑦口口 |--⑤-|
口⑤⑥口 |⑥-⑦-|
83
①①①① |①---|
口③②口 |②-③-|
口口口口
口口口口

⑤口口口
口口口④
⑤口④口 |--④-|
口口口口 |--⑤-|
84
口①口口 |--①-|
口⑤②口 |--②-|
口①④口 |--③-|
口③②口 |④-⑤-|
85
③⑤⑤① |①---|
口口②口 |②-③-|
③口口① |--④-|
口④④口 |--⑤-|
86
口口口口 |----|
口口口口 |----|
口①①口 |----|
口口口口 |①---|
87
口口口口 |①---|
①③③② |--②-|
口口口口 |----|
②口口① |③---|
88
①口口② |①---|
口口口口 |--②-|
②③③① |----|
口口口口 |③---|
89
口④④口 |①---|
①口口② |--②-|
口③③口 |--③-|
②口口① |--④-|
90
⑤⑤⑤⑤ |--①-|
口①①口 |--②-|
口③③口 |③---|
④②②④ |④-⑤-|
91
⑥口口⑥ |--①-|
①②③口 |②-③-|
口口⑤口 |④-⑤-|
口口④口 |--⑥-|
92
口口口口 |--①-|
口③②① |②-③-|
口⑤口口 |④-⑤-|
口④口口 |----|
93
口⑦⑦① |--①-|
②口口口 |②-③-|
⑥口口③ |④-⑤-|
④口口⑤ |⑥-⑦-|
94
⑥⑥⑥⑥ |--①-|
口口①口 |②-③-|
口⑤②口 |④-⑤-|
口④③口 |--⑥-|
95
⑥口口⑥ |--①-|
①②③口 |②-③-|
口口⑤口 |④-⑤-|
口口④口 |--⑥-|
96
口口口口 |--①-|
口③②① |②-③-|
口⑤口口 |④-⑤-|
口④口口 |----|
97
口⑦⑦① |--①-|
②口口口 |②-③-|
⑥口口③ |④-⑤-|
④口口⑤ |⑥-⑦-|
98
口⑥⑥口 |--①-|
口口①口 |②-③-|
口⑤②口 |④-⑤-|
口④③口 |--⑥-|
99
④口⑧⑧ |--①-|
⑤②①口 |②-③-|
⑥口③口 |④⑤⑥⑦|
⑦口口口 |--⑧-|
100
口口口口 |----|
口口口口 |----|
口口口口 |----|
口口口口 |----|
101
口口口口 |----|
口口口口 |----|
口口口口 |----|
口口口口 |----|
102
口口口口 |----|
口口口口 |----|
口口口口 |----|
口口口口 |----|

accuracy: 100%
最終更新:2022年05月07日 17:39