アットウィキロゴ
たからもの
セリカ&エリカ

EXTREME

Level: 9.0
BPM: 182
Notes: 804

1
口口口口 |----|
口口口口 |----|
口口口口 |----|
口口口口 |----|
2
①①口② |①---|
③③口④ |②-③-|
口口⑤⑤ |--④-|
口口口口 |--⑤-|
3
口口口口 |--①-|
口⑤口口 |--②-|
①④口口 |--③-|
口③②② |④-⑤-|
4
②口①① |①---|
④口③③ |②-③-|
⑤⑤口口 |--④-|
口口口口 |--⑤-|
5
口口⑧口 |--①-|
③③口⑧ |--②-|
口口②① |③-④⑤|
⑦⑥⑤④ |⑥⑦⑧-|
6
①⑥口口 |--①-|
⑥口②口 |②-③-|
③口口口 |④-⑤-|
口⑤口④ |--⑥-|
7
口口口① |--①-|
口②口口 |②-③-|
口口口③ |④-⑤-|
④口⑤口 |----|
8
①②③④ |--①-|
⑤⑥口⑦ |②-③-|
口口口⑦ |④-⑤-|
口口口口 |⑥-⑦-|
9
口⑥口口 |--①-|
⑥口①口 |②-③-|
口口①口 |④-⑤-|
②③④⑤ |--⑥-|
10
口口⑥① |--①-|
口②口⑥ |②-③-|
口口口③ |④-⑤-|
④口⑤口 |--⑥-|
11
①口口口 |--①-|
口口②口 |②-③-|
③口口口 |④-⑤-|
口⑤口④ |----|
12
④③②① |--①-|
⑦口⑥⑤ |②-③-|
⑦口口口 |④-⑤-|
口口口口 |⑥-⑦-|
13
④②口口 |--①-|
口①⑥口 |②-③-|
口①⑥口 |④-⑤-|
口口⑤③ |--⑥-|
14
⑧口②④ |--①-|
口口⑧⑤ |②-③-|
⑧口口⑥ |④⑤⑥⑦|
①③⑧⑦ |--⑧-|
15
⑤④③口 |----|
口口口⑥ |①-②-|
口②①口 |③-④-|
口口口⑥ |⑤-⑥-|
16
口口口口 |--①-|
③②①口 |--②-|
口④④口 |--③-|
③②①口 |--④-|
17
口口口口 |----|
③④②① |--①-|
口口口口 |②---|
口口口口 |③-④-|
18
①⑧⑧口 |--①-|
口口口口 |--②-|
⑦⑥⑤④ |③-④⑤|
口②③口 |⑥⑦⑧-|
19
④口口② |----|
③⑥⑤① |①-②-|
口口口口 |③-④-|
口口口口 |⑤-⑥-|
20
口③③口 |--①-|
口口口口 |--②-|
口②②口 |--③-|
④①①④ |--④-|
21
口口口口 |----|
③口口① |--①-|
④口口② |②---|
口口口口 |③-④-|
22
①③④② |--①-|
口口口口 |--②-|
口口口口 |--③-|
②④③① |--④-|
23
口口口口 |①---|
口口口口 |----|
口①①口 |----|
口②②口 |②---|
24
口①①口 |①---|
②口口② |②-③-|
④③③④ |--④-|
口⑤⑤口 |⑤---|
25
⑤④口⑤ |----|
③口口口 |①-②-|
口②口口 |③-④-|
①口口口 |--⑤-|
26
口口口口 |--①-|
④口①口 |②-③-|
口②口口 |④-⑤-|
⑤口③口 |----|
27
口口口口 |①---|
口①①口 |----|
口口口口 |----|
口②②口 |②---|
28
④①①④ |①---|
②口口② |②-③-|
口③③口 |--④-|
口⑤⑤口 |⑤---|
29
⑥口④⑥ |----|
口⑤口③ |①-②-|
口口②口 |③-④-|
口口口① |⑤-⑥-|
30
口④④口 |--①-|
口口③口 |②-③-|
口②口口 |④-⑤-|
⑤口①⑤ |----|
31
⑥口口口 |①---|
①⑥口② |②---|
⑤③③口 |③-④-|
④②①口 |⑤-⑥-|
32
口①口口 |--①-|
②口口口 |②-③-|
⑤⑥⑥口 |④-⑤-|
④③口口 |--⑥-|
33
口口④③ |----|
口①②⑤ |①---|
口口⑤口 |②-③-|
②口口① |④-⑤-|
34
口口口⑤ |--①-|
口口④口 |②-③-|
口口口③ |④-⑤-|
口口②① |----|
35
③②②③ |①---|
口④④口 |②---|
口①①口 |③---|
⑤口口⑤ |④-⑤-|
36
④④④④ |----|
口口口口 |①---|
①③③② |②---|
口①②口 |③-④-|
37
口口口口 |①---|
口口口口 |②---|
口口口口 |③---|
①③④② |④---|
38
口口口③ |①---|
口①口④ |----|
口②口⑤ |--②-|
口口口⑥ |③④⑤⑥|
39
①①①⑤ |①---|
②口⑤⑥ |②-③-|
口⑥③口 |④-⑤-|
④口口⑥ |--⑥-|
40
③④⑤⑥ |--①-|
口③口口 |②-③-|
口口口口 |--④-|
口②①口 |⑤-⑥-|
41
口口口口 |①---|
①口②口 |②-③-|
口③①口
①口口口

口⑥⑤⑥
口口口⑤
口口⑥口 |④-⑤-|
口口④口 |--⑥-|
42
口口口口 |--①-|
口口①⑥ |②-③-|
⑤②口口 |--④-|
口③③④ |⑤-⑥-|
43
②①①⑤ |①---|
口⑥口口 |②-③-|
口口③口 |④-⑤-|
④⑦⑦口 |⑥-⑦-|
44
口④口口 |--①-|
⑥口⑤③ |②-③-|
⑥②口③ |--④-|
口口口① |⑤-⑥-|
45
⑥口口口 |①-②-|
⑦②口口 |③-④-|
⑧③⑤⑤ |⑤-⑥-|
口④①① |⑦-⑧-|
46
口⑤④④ |①-②-|
口③①① |③-④-|
口②口⑥ |⑤-⑥-|
⑦⑧⑨⑩ |⑦⑧⑨⑩|
47
①口⑤⑤ |①---|
②⑥①口 |②-③-|
①③④口 |④-⑤-|
⑥口⑥口 |--⑥-|
48
④①口口 |--①-|
②口口⑤ |②-③-|
⑥口③③ |--④-|
口口口口 |⑤-⑥-|
49
口口③口 |①---|
口口①口 |②-③-|
口口②口
口①口①

⑥④口⑥
口⑥⑥口
口⑤口口 |④-⑤-|
口口口口 |--⑥-|
50
口口口口 |--①-|
②口口① |②-③-|
④口⑨③ |④-⑤⑥|
⑧⑦⑥⑤ |⑦⑧⑨-|
51
③①①③ |①---|
口口口口 |--②-|
②口口② |----|
口口口口 |③---|
52
③口口口 |①---|
①口口① |--②-|
口口③口 |----|
口②②口 |③---|
53
口口口口 |①---|
口①口① |--②-|
口口口②
口②口口

口③④④
③口口④
口口口口 |--③-|
口口口口 |--④-|
54
③④口口 |--①-|
④①①口 |--②-|
②②①⑤ |③---|
口②⑤③ |④-⑤-|
55
④口口⑥ |--①-|
口③②① |②-③-|
口口口⑥ |④-⑤-|
口⑤口口 |--⑥-|
56
⑥⑤口口 |--①-|
口③②① |②-③-|
⑥口口口 |④-⑤-|
口口④口 |--⑥-|
57
口④口① |--①-|
②口④③ |--②-|
口④口① |--③-|
②口④③ |--④-|
58
口⑧①⑧ |--①-|
⑧②⑧⑦ |②-③-|
口口③⑥ |④-⑤⑥|
口④口⑤ |⑦-⑧-|
59
①口②⑥ |--①-|
口⑤口口 |②-③-|
口口口⑥ |④-⑤-|
口③口④ |--⑥-|
60
①口口④ |--①-|
口④口口 |--②-|
①口口口 |--③-|
口③②口 |--④-|
61
②⑥口⑥ |--①-|
⑤口②口 |--②-|
④口口口 |--③④|
③口口① |⑤-⑥-|
62
②口⑬⑬ |--①②|
⑫⑩③⑤ |③④⑤⑥|
⑧⑥⑨① |⑦⑧⑨⑩|
口④⑦⑪ |⑪⑫⑬-|
63
④⑤⑥口 |--①-|
口口①口 |②-③-|
⑤④口口 |④-⑤-|
②⑥③口 |--⑥-|
64
口口⑦口 |--①-|
④①口⑦ |②-③-|
口⑤②口 |④-⑤-|
口口⑥③ |⑥-⑦-|
65
②口口④ |--①-|
口⑥①⑦ |②-③-|
⑥口⑦口 |④-⑤-|
③口口⑤ |⑥-⑦-|
66
⑤③③口 |--①-|
口④口口 |②-③-|
⑤口口① |--④-|
口口②④ |⑤---|
67
口⑦⑤③ |①-②-|
⑧⑥④口 |③-④-|
口①①② |⑤-⑥-|
口口口口 |⑦-⑧-|
68
口口④④ |①-②-|
口口⑦⑧ |③-④-|
⑤⑥口③ |⑤-⑥-|
②口口① |⑦-⑧-|
69
③口口口 |①-②③|
口②口口 |-④⑤-|
口口口⑤
①口④①

口口口⑧
口口⑧⑦
⑥⑧口口 |--⑥-|
⑧口口口 |⑦-⑧-|
70
口①②口 |----|
①②口③ |①---|
口口①② |②---|
口①②口 |③---|
71
⑥④⑤口 |①②③-|
口口③口 |④-⑤-|
①②口口 |⑥-⑦-|
⑦⑨⑧口 |⑧-⑨-|
72
口口④① |①-②-|
口口口④ |③-④-|
口③口口 |----|
口口口② |----|
73
⑤⑤⑤⑤ |--①-|
④③①② |②---|
③④②① |③-④-|
口口口口 |--⑤-|
74
口口口口 |----|
口口③口 |----|
口②口口 |--①-|
口口①口 |②-③-|
75
①①②② |①-②-|
口③口口 |----|
口口口口 |----|
口口口③ |--③-|
76
口口口口 |--①-|
口口⑤① |--②-|
口④②口 |--③-|
口①③口 |④-⑤-|
77
①①②② |①-②-|
口③口口 |----|
口口口口 |----|
口口口③ |--③-|
78
口口口口 |--①-|
口口⑤① |--②-|
口④②口 |--③-|
口①③口 |④-⑤-|
79
①①①① |①---|
口口口口 |----|
口口口口 |----|
口口口口 |----|
80
①①①① |①---|
口口口口 |----|
口口口口 |----|
口口口口 |----|
81
⑥口口口 |①-②-|
⑦②口口 |③-④-|
⑧③⑤⑤ |⑤-⑥-|
口④①① |⑦-⑧-|
82
口⑤④④ |①-②-|
口③①① |③-④-|
口②口⑥ |⑤-⑥-|
⑦⑦⑦⑦ |⑦---|
83
口口口口 |①---|
口③①① |②-③-|
①①②口
口口口口

口⑤⑥④
⑤口口口
口⑥口⑥ |④-⑤-|
口口口⑤ |--⑥-|
84
③⑤口④ |--①-|
口③①口 |②-③-|
⑥口③口 |--④-|
口口②口 |⑤-⑥-|
85
⑤⑤⑤⑤ |①---|
①③①口 |②-③-|
口④④③ |--④-|
口①③② |--⑤-|
86
口口口口 |--①-|
②⑥⑤③ |②-③-|
口⑧⑦口 |④-⑤⑥|
④⑩⑨① |⑦⑧⑨⑩|
87
②②①① |①---|
口口口口 |--②-|
口口口③ |----|
口口口口 |③---|
88
口口口③ |①---|
口口口③ |--②-|
①口口口 |----|
口②②口 |③---|
89
口口①口 |①---|
口④①口 |--②-|
②③④口 |--③-|
②③口口 |--④-|
90
①⑤⑤② |--①-|
口口③口 |--②-|
口③口口 |③---|
②④④① |④-⑤-|
91
①口口口 |--①-|
⑤⑤口② |②-③-|
③口口⑥ |④-⑤-|
⑦⑦口④ |⑥-⑦-|
92
④口①口 |①-②-|
口口⑤⑤ |③-④-|
⑥②⑦⑦ |⑤-⑥-|
口⑧③口 |⑦-⑧-|
93
⑧口口① |①-②-|
口②⑤口 |③-④-|
口⑥口口 |⑤-⑥-|
④口③⑦ |⑦-⑧-|
94
⑨④①⑨ |①-②-|
口②⑤⑤ |③-④-|
口口③③ |⑤-⑥⑦|
⑥⑦⑧口 |⑧-⑨-|
95
口口①口 |--①-|
口⑥③口 |②-③-|
②口⑤⑤ |④-⑤-|
口④⑦⑦ |⑥-⑦-|
96
③口⑧口 |①-②-|
⑦⑦④② |③-④-|
口①口⑥ |⑤-⑥-|
⑤⑤口口 |⑦-⑧-|
97
③⑨⑨口 |①-②-|
口⑧口④ |③-④-|
口①⑦⑥ |⑤-⑥⑦|
⑤口口② |⑧-⑨-|
98
①⑩口口 |--①-|
⑩口⑨⑧ |②-③-|
⑦⑥⑤④ |④⑤⑥⑦|
③口口② |⑧⑨⑩-|
99
⑨⑨⑨④ |--①-|
口②口⑤ |②-③-|
口口③⑥ |④⑤⑥⑦|
⑧⑧①⑦ |⑧-⑨-|
100
口口口口 |----|
口口口口 |----|
口口口口 |----|
口口口口 |----|
101
口口口口 |----|
口口①口 |----|
口②口口 |----|
口口口口 |--①②|
102
口口口口 |①---|
口口口口 |----|
口口口口 |----|
口口①口 |----|

accuracy: 100%
最終更新:2022年05月07日 17:39